<?xml version="1.0" standalone="no"?>
<!DOCTYPE svg PUBLIC "-//W3C//DTD SVG 1.1//EN" "http://www.w3.org/Graphics/SVG/1.1/DTD/svg11.dtd" >
<svg xmlns="http://www.w3.org/2000/svg">
<metadata>Generated by IcoMoon</metadata>
<defs>
<font id="icomoon" horiz-adv-x="1024">
<font-face units-per-em="1024" ascent="960" descent="-64" />
<missing-glyph horiz-adv-x="1024" />
<glyph unicode="&#x20;" horiz-adv-x="512" d="" />
<glyph unicode="&#xe900;" glyph-name="discord-i6" d="M880.104 709.948c26.485-15.291 42.802-43.552 42.802-74.134v-375.626c0-30.585-16.318-58.843-42.802-74.136l-325.3-187.813c-26.485-15.29-59.118-15.29-85.602 0l-325.301 187.813c-26.486 15.292-42.802 43.551-42.802 74.136v375.626c0 30.582 16.316 58.843 42.802 74.134l325.301 187.812c26.485 15.292 59.118 15.292 85.602 0l325.3-187.812zM580.187 941.73c-42.193 24.361-94.181 24.361-136.373 0l-325.301-187.812c-42.194-24.361-68.187-69.383-68.187-118.103v-375.626c0-48.723 25.993-93.744 68.187-118.104l325.301-187.813c42.193-24.362 94.181-24.362 136.373 0l325.3 187.813c42.193 24.36 68.188 69.381 68.188 118.104v375.626c0 48.72-25.995 93.742-68.188 118.103l-325.3 187.812zM665.425 600.454c-28.939 13.766-60.275 23.761-92.913 29.534-0.653 0-1.089-0.224-1.524-0.668-3.917-7.326-8.486-16.877-11.532-24.205-35.032 5.331-70.066 5.331-104.447 0-3.046 7.552-7.616 16.879-11.751 24.205-0.219 0.444-0.871 0.668-1.524 0.668-32.641-5.772-63.756-15.767-92.913-29.534-0.219 0-0.437-0.224-0.653-0.444-59.187-90.383-75.506-178.321-67.455-265.37 0-0.444 0.218-0.888 0.653-1.109 39.168-29.312 76.812-47.077 114.019-58.848 0.653-0.221 1.307 0 1.524 0.444 8.705 12.215 16.539 25.093 23.284 38.639 0.434 0.888 0 1.777-0.871 2-12.403 4.884-24.152 10.659-35.687 17.321-0.868 0.444-0.868 1.777-0.215 2.442 2.394 1.777 4.787 3.775 7.179 5.552 0.437 0.444 1.089 0.444 1.524 0.221 74.855-34.865 155.583-34.865 229.566 0 0.434 0.224 1.087 0.224 1.524-0.221 2.394-1.998 4.787-3.775 7.179-5.775 0.871-0.665 0.871-1.998-0.215-2.442-11.317-6.884-23.284-12.434-35.687-17.321-0.871-0.221-1.087-1.333-0.871-1.998 6.963-13.546 14.797-26.427 23.284-38.639 0.653-0.224 1.305-0.444 1.958-0.224 37.428 11.771 75.072 29.536 114.24 58.848 0.434 0.221 0.653 0.665 0.653 1.109 9.573 100.595-15.887 187.868-67.454 265.37-0.219 0.221-0.437 0.444-0.871 0.444zM431.506 387.713c-22.413 0-41.124 21.096-41.124 47.077s18.277 47.077 41.124 47.077c23.065 0 41.343-21.319 41.127-47.077 0-25.983-18.277-47.077-41.127-47.077zM583.173 387.713c-22.413 0-41.124 21.096-41.124 47.077s18.277 47.077 41.124 47.077c23.065 0 41.343-21.319 41.127-47.077 0-25.983-18.062-47.077-41.127-47.077z" />
<glyph unicode="&#xe901;" glyph-name="twitter-i6" d="M880.104 709.949c26.485-15.292 42.8-43.552 42.8-74.136v-375.625c0-30.582-16.316-58.844-42.8-74.134l-325.301-187.813c-26.487-15.292-59.118-15.292-85.605 0l-325.3 187.813c-26.486 15.29-42.802 43.552-42.802 74.134v375.625c0 30.584 16.316 58.844 42.802 74.136l325.3 187.812c26.487 15.292 59.118 15.292 85.605 0l325.301-187.812zM580.189 941.729c-42.196 24.361-94.18 24.361-136.376 0l-325.3-187.813c-42.195-24.361-68.187-69.382-68.187-118.105v-375.625c0-48.72 25.993-93.742 68.187-118.104l325.3-187.813c42.196-24.36 94.18-24.36 136.376 0l325.301 187.813c42.194 24.362 68.185 69.384 68.185 118.104v375.625c0 48.722-25.993 93.744-68.185 118.105l-325.301 187.813zM726.61 583.071c22.756 13.604 39.784 35.027 47.903 60.265-21.382-12.688-44.78-21.626-69.176-26.427-33.824 35.781-87.415 44.489-130.827 21.255-43.412-23.23-65.899-72.648-54.893-120.64-87.59 4.397-169.195 45.772-224.51 113.829-28.867-49.791-14.116-113.443 33.712-145.459-17.295 0.556-34.207 5.239-49.324 13.657 0-0.457 0-0.914 0-1.371 0.010-51.868 36.565-96.544 87.403-106.822-16.041-4.364-32.869-5.006-49.197-1.878 14.297-44.356 55.178-74.743 101.771-75.649-38.591-30.288-86.247-46.715-135.305-46.633-8.695-0.012-17.384 0.487-26.020 1.497 49.816-32.011 107.797-49.004 167.011-48.943 82.381-0.566 161.553 31.912 219.806 90.169s90.725 137.433 90.152 219.814c0 4.722-0.109 9.418-0.33 14.089 21.336 15.419 39.749 34.522 54.376 56.406-19.877-8.812-40.96-14.595-62.55-17.161z" />
<glyph unicode="&#xe902;" glyph-name="like" d="M390.981 580.353h-297.89c-24.689 0-48.367-9.891-65.825-27.497s-27.266-41.484-27.266-66.383v-98.761c-0.013-12.269 2.359-24.42 6.982-35.768l144.105-352.709c3.504-8.602 9.462-15.961 17.12-21.142s16.667-7.953 25.888-7.96h783.361c12.343 0 24.18 4.943 32.911 13.749 8.731 8.8 13.633 20.739 13.633 33.191v469.4c0 12.45-4.902 24.389-13.633 33.192s-20.569 13.748-32.911 13.748h-162.072c-7.455-0.002-14.793 1.801-21.415 5.256-6.615 3.455-12.315 8.462-16.616 14.6l-253.809 362.659c-3.209 4.585-7.94 7.86-13.337 9.229s-11.101 0.743-16.080-1.766l-84.434-42.621c-23.762-11.977-42.744-31.793-53.793-56.156s-13.502-51.803-6.948-77.765l42.030-166.496zM744.727 458.874v-394.86h-519.448l-132.189 323.699v98.761h297.89c14.178 0.002 28.168 3.27 40.903 9.555s23.878 15.419 32.58 26.707c8.701 11.289 14.731 24.432 17.629 38.428s2.588 28.475-0.907 42.332l-42.030 166.543c-1.315 5.194-0.828 10.687 1.382 15.563s6.010 8.843 10.766 11.239l30.766 15.49 219.232-313.184c11.633-16.617 26.528-30.23 43.424-40.275zM837.815 439.534h93.095v-375.521h-93.095v375.521z" />
<glyph unicode="&#xe903;" glyph-name="telegram-i6" d="M880.102 709.948c26.485-15.292 42.8-43.552 42.8-74.136v-375.624c0-30.582-16.316-58.844-42.8-74.134l-325.301-187.813c-26.487-15.292-59.118-15.292-85.605 0l-325.3 187.813c-26.486 15.29-42.802 43.552-42.802 74.134v375.624c0 30.584 16.316 58.844 42.802 74.136l325.3 187.812c26.487 15.292 59.118 15.292 85.605 0l325.301-187.812zM580.188 941.728c-42.196 24.361-94.18 24.361-136.376 0l-325.3-187.813c-42.195-24.361-68.187-69.382-68.187-118.105v-375.624c0-48.72 25.993-93.742 68.187-118.104l325.3-187.813c42.196-24.36 94.18-24.36 136.376 0l325.301 187.813c42.194 24.362 68.185 69.384 68.185 118.104v375.624c0 48.722-25.993 93.744-68.185 118.105l-325.301 187.813zM534.93 564.209c-40.916-18.24-122.716-56.037-245.364-113.349-19.915-8.499-30.364-16.81-31.311-24.934-1.613-13.764 14.446-19.179 36.254-26.512 2.98-1.015 6.067-2.030 9.223-3.158 21.494-7.484 50.383-16.247 65.391-16.584 13.64-0.302 28.856 5.714 45.651 18.051 114.583 82.999 173.731 124.93 177.451 125.834 2.627 0.637 6.275 1.465 8.731-0.904 2.452-2.333 2.208-6.77 1.963-7.974-1.612-7.258-64.515-70.023-97.123-102.517-10.167-10.116-17.354-17.298-18.828-18.953-3.295-3.648-6.662-7.146-9.887-10.492-19.984-20.611-34.92-36.104 0.842-61.375 16.678-11.794 30.118-21.601 43.432-31.315l1.201-0.879c14.973-10.944 29.91-21.85 49.264-35.461 4.909-3.46 9.606-7.034 14.201-10.533 17.425-13.35 33.098-25.31 52.452-23.428 11.22 1.13 22.862 12.449 28.752 46.258 13.919 79.952 41.338 253.097 47.684 324.473 0.386 5.928 0.152 11.88-0.701 17.753-0.51 4.74-2.663 9.103-6.032 12.221-5.013 4.402-12.796 5.341-16.302 5.265-15.813-0.3-40.076-9.363-156.939-61.486z" />
<glyph unicode="&#xe904;" glyph-name="sword-i6" d="M856.599 648.453l83.743-148.168c18.323-32.414 18.323-72.161 0-104.575l-83.739-148.166-85.49-147.155c-18.7-32.19-52.861-52.064-89.884-52.288l-169.228-1.012-169.229 1.012c-37.021 0.223-71.184 20.097-89.885 52.288l-85.487 147.155-83.742 148.166c-18.32 32.414-18.32 72.161 0 104.575l83.742 148.167 85.486 147.154c18.701 32.192 52.865 52.065 89.886 52.287l169.228 1.014 169.228-1.014c37.023-0.222 71.184-20.094 89.884-52.287l85.486-147.153zM917.151 683.675l-85.697 147.515c-31.167 53.654-88.106 86.775-149.809 87.144l-169.645 1.017-169.645-1.017c-61.703-0.37-118.641-33.491-149.81-87.144l-85.697-147.515-83.948-148.531c-30.533-54.023-30.533-120.266 0-174.289l83.948-148.531 85.696-147.516c31.169-53.653 88.107-86.775 149.81-87.144l169.646-1.016 169.645 1.016c61.703 0.369 118.643 33.491 149.809 87.144l85.697 147.516 83.946 148.531c30.536 54.023 30.536 120.266 0 174.289l-83.946 148.531zM600.137 678.916c3.075 3.4 7.442 5.34 12.025 5.34h99.334c8.946 0 16.199-7.254 16.199-16.201v-109.943c0-4.013-1.489-7.884-4.179-10.862l-173.835-192.4c-3.071-3.398-7.438-5.341-12.021-5.341s-8.95 1.943-12.021 5.341l-99.334 109.943c-5.576 6.172-5.576 15.556 0 21.725l173.831 192.4zM377.797 432.705c6.641 5.999 16.884 5.479 22.883-1.162l99.334-109.943c5.999-6.638 5.479-16.884-1.158-22.883-6.641-5.999-16.884-5.479-22.883 1.162l-37.647 41.664-77.498-85.774 15.018-16.626c5.999-6.638 5.479-16.884-1.158-22.883-6.641-5.999-16.884-5.479-22.883 1.162l-49.667 54.969c-5.999 6.641-5.479 16.884 1.16 22.883s16.884 5.479 22.883-1.158l12.812-14.183 77.497 85.778-39.852 44.111c-5.999 6.638-5.479 16.884 1.158 22.883z" />
<glyph unicode="&#xe905;" glyph-name="m-i6" d="M880.103 709.949c26.485-15.292 42.8-43.552 42.8-74.136v-375.624c0-30.582-16.316-58.844-42.8-74.134l-325.301-187.813c-26.487-15.292-59.118-15.292-85.605 0l-325.3 187.813c-26.486 15.29-42.802 43.552-42.802 74.134v375.624c0 30.584 16.316 58.844 42.802 74.136l325.3 187.812c26.487 15.292 59.118 15.292 85.605 0l325.301-187.812zM580.189 941.729c-42.196 24.361-94.18 24.361-136.376 0l-325.3-187.813c-42.195-24.361-68.187-69.382-68.187-118.105v-375.624c0-48.72 25.993-93.742 68.187-118.104l325.3-187.813c42.196-24.36 94.18-24.36 136.376 0l325.301 187.813c42.194 24.362 68.185 69.384 68.185 118.104v375.624c0 48.722-25.993 93.744-68.185 118.105l-325.301 187.813zM715.086 618.087l-32.367-34.22c-2.856-2.364-4.203-6.212-3.648-9.977v-251.779c-0.556-3.851 0.792-7.702 3.648-9.977l31.732-34.22v-7.613h-159.294v7.262l32.763 35.096c3.255 3.587 3.255 4.638 3.255 9.977v203.735l-91.23-255.193h-12.297l-106.143 255.193v-171.094c-0.952-7.174 1.348-14.439 5.947-19.603l42.681-56.971v-7.615h-121.216v7.615l42.678 56.971c2.249 2.563 3.924 5.671 4.886 9.075 0.964 3.404 1.193 7.009 0.667 10.528v197.784c0.556 5.514-1.348 10.852-5.156 14.617l-37.921 50.408v7.613h117.804l90.914-220.1 80.044 219.925h112.252v-7.438z" />
<glyph unicode="&#xe906;" glyph-name="sort-min-max" d="M0 49.778c0-31.419 25.47-56.889 56.889-56.889h910.222c31.42 0 56.889 25.47 56.889 56.889v0c0 31.419-25.469 56.889-56.889 56.889h-910.222c-31.419 0-56.889-25.47-56.889-56.889v0zM256 448c0-31.419 25.47-56.889 56.889-56.889h654.222c31.42 0 56.889 25.47 56.889 56.889v0c0 31.419-25.469 56.889-56.889 56.889h-654.222c-31.419 0-56.889-25.47-56.889-56.889v0zM512 846.222c0-31.42 25.47-56.889 56.889-56.889h398.222c31.42 0 56.889 25.469 56.889 56.889v0c0 31.42-25.469 56.889-56.889 56.889h-398.222c-31.419 0-56.889-25.469-56.889-56.889v0z" />
<glyph unicode="&#xe907;" glyph-name="gold-2" d="M856.6 648.454l83.744-148.168c18.318-32.415 18.318-72.161 0-104.576l-83.744-148.167-85.486-147.153c-18.701-32.194-52.865-52.064-89.887-52.288l-169.227-1.014-169.23 1.014c-37.021 0.224-71.183 20.094-89.886 52.288l-85.487 147.153-83.742 148.167c-18.32 32.415-18.32 72.161 0 104.576l83.742 148.167 85.487 147.153c18.701 32.192 52.863 52.065 89.885 52.287l169.23 1.015 169.227-1.015c37.021-0.222 71.186-20.094 89.887-52.287l85.486-147.153zM917.151 683.676l-85.698 147.515c-31.168 53.654-88.104 86.775-149.807 87.144l-169.645 1.017-169.645-1.017c-61.703-0.37-118.641-33.491-149.81-87.144l-85.697-147.515-83.949-148.532c-30.534-54.023-30.534-120.266 0-174.288l83.949-148.532 85.697-147.516c31.169-53.655 88.107-86.773 149.81-87.144l169.645-1.016 169.645 1.016c61.703 0.371 118.639 33.49 149.807 87.144l85.698 147.516 83.948 148.532c30.535 54.023 30.535 120.266 0 174.288l-83.948 148.532zM785.666 554.658l-40.092 16.45-299.971-169.424 40.433-16.259 299.63 169.233zM328.746 448.672l-27.883 11.212 35.687 86.284 65.117-26.057 18.059-107.707-24.596 9.574-66.384 26.693zM480.13 371.924l-67.551 27.164-34.109-94.344 124.398-47.179-22.74 114.359zM349.71 315.653l14.989-5.686 34.205 94.618-9.194 3.697-54.701 21.294 14.7-113.923zM288.080 447.843l31.29-12.182 14.724-114.087-122.637 46.511 36.54 97.178 33.569-13.495-0.494-1.196 7.009-2.728zM287.195 465.378l-27.685 11.133 44.477 29.46-16.79-40.592zM832.878 431.329l-314.934-174.044-23.105 116.194 303.306 171.313 34.733-113.463zM407.736 533.548l-57.982 23.202 278.498 152.545 59.599-20.494-280.116-155.253zM736.065 582.654l-34.217 97.065-285.477-158.226 18.289-109.074 301.406 170.235z" />
<glyph unicode="&#xe908;" glyph-name="xp-i6" d="M856.603 648.454l83.743-148.169c18.319-32.414 18.319-72.157-0.004-104.575l-83.739-148.166-85.49-147.155c-18.7-32.19-52.861-52.064-89.884-52.284l-169.228-1.016-169.229 1.016c-37.021 0.219-71.184 20.093-89.885 52.284l-85.487 147.155-83.742 148.166c-18.32 32.418-18.32 72.161 0 104.575l83.742 148.168 85.486 147.153c18.701 32.192 52.865 52.065 89.886 52.287l169.228 1.015 169.228-1.015c37.023-0.222 71.184-20.094 89.884-52.287l85.49-147.153zM917.151 683.676l-85.697 147.515c-31.167 53.653-88.106 86.775-149.809 87.144l-169.645 1.017-169.645-1.017c-61.703-0.37-118.641-33.491-149.81-87.144l-85.697-147.515-83.948-148.532c-30.533-54.023-30.533-120.266 0-174.289l83.948-148.531 85.696-147.516c31.169-53.653 88.107-86.771 149.81-87.144l169.646-1.016 169.645 1.016c61.703 0.373 118.643 33.491 149.809 87.144l85.697 147.516 83.946 148.531c30.536 54.023 30.536 120.266 0 174.289l-83.946 148.532zM313.73 462.186l-76.871 148.68h79.633l47.873-99.655 78.021 99.655h91.6l-129.116-148.68 85.617-164.327h-80.091l-56.158 115.995-92.291-115.995h-91.831l143.615 164.327zM716.036 610.865c19.489 0 36.442-3.682 50.864-11.048 14.579-7.365 25.703-17.721 33.371-31.073 7.672-13.194 11.509-28.462 11.509-45.801 0-18.72-4.909-38.359-14.729-58.917-9.82-20.409-24.78-37.746-44.88-52.014-20.101-14.117-44.727-21.174-73.877-21.174h-63.292l-16.572-92.982h-72.957l55.235 313.007h135.33zM685.196 455.514c10.435 0 19.639 2.99 27.619 8.976 7.976 6.137 14.040 13.425 18.181 21.863 4.298 8.438 6.445 16.034 6.445 22.787 0 6.441-1.459 12.501-4.371 18.181-2.916 5.675-7.061 10.204-12.428 13.579-5.371 3.374-11.509 5.064-18.415 5.064h-60.067l-15.88-90.449h58.917z" />
<glyph unicode="&#xe909;" glyph-name="coins-i6" d="M371.46 279.809c53.084-48.255 160.802-9.742 243.93 88.391 75.401 89.022 105.267 197.226 75.139 258.003 2.278-1.998 4.486-4.108 6.63-6.331 61.776-64.102 42.875-197.496-42.21-297.947s-204.14-129.92-265.916-65.816c-6.842 7.096-12.69 15.041-17.573 23.698zM576.791 408.702c-85.087-100.45-195.936-138.432-247.59-84.835s-24.55 178.479 60.536 278.93c85.087 100.45 195.936 138.432 247.59 84.835s24.55-178.479-60.536-278.93zM856.603 648.454l83.743-148.169c18.319-32.414 18.319-72.157 0-104.575l-83.743-148.166-85.49-147.155c-18.7-32.19-52.861-52.064-89.884-52.284l-169.228-1.016-169.229 1.016c-37.021 0.219-71.184 20.093-89.885 52.284l-85.487 147.155-83.742 148.166c-18.32 32.418-18.32 72.161 0 104.575l83.742 148.168 85.486 147.153c18.701 32.192 52.865 52.065 89.886 52.287l169.228 1.015 169.228-1.015c37.023-0.222 71.184-20.094 89.887-52.287l85.486-147.153zM917.151 683.676l-85.697 147.515c-31.167 53.653-88.106 86.775-149.809 87.144l-169.645 1.017-169.645-1.017c-61.703-0.37-118.641-33.491-149.81-87.144l-85.697-147.515-83.948-148.532c-30.533-54.023-30.533-120.266 0-174.289l83.948-148.531 85.696-147.516c31.169-53.653 88.107-86.771 149.81-87.144l169.646-1.016 169.645 1.016c61.703 0.373 118.643 33.491 149.809 87.144l85.697 147.516 83.946 148.531c30.536 54.023 30.536 120.266 0 174.289l-83.946 148.532z" />
<glyph unicode="&#xe90a;" glyph-name="poins-i6" d="M856.603 648.455l83.743-148.169c18.32-32.414 18.32-72.157 0-104.575l-83.743-148.166-85.49-147.155c-18.7-32.19-52.861-52.064-89.883-52.283l-169.229-1.016-169.23 1.016c-37.022 0.219-71.184 20.094-89.885 52.283l-85.488 147.155-83.742 148.166c-18.321 32.418-18.321 72.162 0 104.575l83.742 148.168 85.487 147.153c18.701 32.192 52.865 52.065 89.886 52.287l169.229 1.015 169.229-1.015c37.024-0.222 71.184-20.095 89.883-52.287l85.49-147.153zM917.151 683.676l-85.697 147.515c-31.167 53.654-88.106 86.775-149.809 87.144l-169.645 1.017-169.645-1.017c-61.703-0.37-118.641-33.49-149.81-87.144l-85.697-147.515-83.948-148.533c-30.533-54.023-30.533-120.266 0-174.289l83.948-148.532 85.696-147.516c31.169-53.654 88.107-86.771 149.81-87.144l169.646-1.016 169.645 1.016c61.703 0.373 118.643 33.49 149.809 87.144l85.697 147.516 83.946 148.532c30.536 54.023 30.536 120.266 0 174.289l-83.946 148.533zM574.765 639.544c23.661 0 44.249-4.472 61.76-13.415 17.699-8.943 31.209-21.52 40.524-37.729 9.315-16.024 13.972-34.561 13.972-55.615 0-22.728-5.96-46.577-17.884-71.546-11.924-24.78-30.090-45.831-54.496-63.157-24.407-17.142-54.311-25.715-89.711-25.715h-76.856l-20.12-112.905h-88.593l67.072 380.080h164.331zM537.314 450.901c12.67 0 23.849 3.633 33.538 10.901 9.689 7.453 17.045 16.303 22.079 26.55 5.214 10.246 7.822 19.47 7.822 27.666 0 7.826-1.77 15.187-5.31 22.079-3.54 6.895-8.569 12.39-15.092 16.487-6.518 4.102-13.972 6.149-22.355 6.149h-72.941l-19.285-109.83h71.546z" />
<glyph unicode="&#xe90b;" glyph-name="nft-i6" d="M211.139 557h44.19l98.875-157.054v-0.185l27.25 157.239h59.472l-44.192-250.405h-45.477l-97.952 157.239-27.066-157.239h-59.288l44.189 250.405zM492.11 557h176.57l-9.204-51.922h-118.207l-10.128-57.447h101.45l-8.654-48.79h-101.45l-16.203-92.247h-58.367l44.192 250.405zM746.934 505.077h-69.964l9.204 51.922h198.114l-9.204-51.922h-69.968l-34.983-198.484h-58.181l34.983 198.484zM856.603 648.455l83.743-148.168c18.32-32.414 18.32-72.162-0.004-104.575l-83.739-148.166-85.49-147.155c-18.7-32.19-52.861-52.064-89.883-52.288l-169.229-1.012-169.23 1.012c-37.022 0.223-71.184 20.097-89.885 52.288l-85.488 147.155-83.742 148.166c-18.321 32.414-18.321 72.162 0 104.575l83.742 148.167 85.487 147.153c18.701 32.192 52.865 52.065 89.886 52.287l169.229 1.014 169.229-1.014c37.024-0.222 71.184-20.095 89.883-52.287l85.49-147.153zM917.151 683.676l-85.697 147.515c-31.167 53.654-88.106 86.775-149.809 87.144l-169.645 1.017-169.645-1.017c-61.703-0.37-118.641-33.49-149.81-87.144l-85.697-147.515-83.948-148.532c-30.533-54.023-30.533-120.266 0-174.289l83.948-148.532 85.696-147.516c31.169-53.654 88.107-86.775 149.81-87.144l169.646-1.016 169.645 1.016c61.703 0.369 118.643 33.49 149.809 87.144l85.697 147.516 83.946 148.532c30.536 54.023 30.536 120.266 0 174.289l-83.946 148.532z" />
<glyph unicode="&#xe90c;" glyph-name="sort-max-min" d="M0 846.222c0 31.419 25.47 56.889 56.889 56.889h910.222c31.42 0 56.889-25.47 56.889-56.889v0c0-31.419-25.469-56.889-56.889-56.889h-910.222c-31.419 0-56.889 25.47-56.889 56.889v0zM256 448c0 31.419 25.47 56.889 56.889 56.889h654.222c31.42 0 56.889-25.47 56.889-56.889v0c0-31.419-25.469-56.889-56.889-56.889h-654.222c-31.419 0-56.889 25.47-56.889 56.889v0zM512 49.778c0 31.42 25.47 56.889 56.889 56.889h398.222c31.42 0 56.889-25.469 56.889-56.889v0c0-31.42-25.469-56.889-56.889-56.889h-398.222c-31.419 0-56.889 25.469-56.889 56.889v0z" />
<glyph unicode="&#xe90d;" glyph-name="settings-2" d="M213.577 140.873c10.575 29.975 30.187 55.927 56.132 74.288 25.944 18.356 56.945 28.215 88.728 28.215s62.783-9.859 88.728-28.215c25.944-18.361 45.557-44.313 56.132-74.288h520.576v-102.375h-520.576c-10.575-29.97-30.187-55.922-56.132-74.283-25.944-18.356-56.945-28.215-88.728-28.215s-62.783 9.859-88.728 28.215c-25.944 18.361-45.557 44.313-56.132 74.283h-213.451v102.375h213.451zM520.703 499.186c10.575 29.972 30.185 55.926 56.132 74.284s56.946 28.217 88.728 28.217c31.782 0 62.781-9.859 88.728-28.217s45.557-44.312 56.132-74.284h213.451v-102.377h-213.451c-10.575-29.97-30.185-55.922-56.132-74.283-25.946-18.356-56.946-28.215-88.728-28.215s-62.781 9.859-88.728 28.215c-25.946 18.361-45.557 44.313-56.132 74.283h-520.576v102.377h520.576zM213.577 857.499c10.575 29.972 30.187 55.926 56.132 74.284s56.945 28.217 88.728 28.217c31.783 0 62.783-9.858 88.728-28.217s45.557-44.312 56.132-74.284h520.576v-102.375h-520.576c-10.575-29.972-30.187-55.926-56.132-74.284s-56.945-28.217-88.728-28.217c-31.783 0-62.783 9.858-88.728 28.217s-45.557 44.312-56.132 74.284h-213.451v102.375h213.451zM358.438 755.124c13.576 0 26.595 5.394 36.195 14.992s14.992 22.619 14.992 36.195c0 13.576-5.394 26.595-14.992 36.195s-22.619 14.992-36.195 14.992c-13.576 0-26.595-5.394-36.195-14.992s-14.992-22.619-14.992-36.195c0-13.576 5.394-26.595 14.992-36.195s22.619-14.992 36.195-14.992v0zM665.563 396.809c13.575 0 26.597 5.396 36.195 14.992 9.598 9.603 14.992 22.62 14.992 36.195 0 13.578-5.396 26.598-14.992 36.197s-22.62 14.992-36.195 14.992c-13.575 0-26.597-5.394-36.195-14.992s-14.992-22.619-14.992-36.197c0-13.575 5.396-26.592 14.992-36.195 9.598-9.598 22.62-14.992 36.195-14.992v0zM358.438 38.498c13.576 0 26.595 5.396 36.195 14.992 9.599 9.603 14.992 22.62 14.992 36.195 0 13.581-5.394 26.597-14.992 36.199-9.6 9.598-22.619 14.987-36.195 14.987s-26.595-5.39-36.195-14.987c-9.599-9.603-14.992-22.62-14.992-36.199 0-13.575 5.394-26.592 14.992-36.195 9.6-9.598 22.619-14.992 36.195-14.992v0z" />
<glyph unicode="&#xe90e;" glyph-name="lucky" horiz-adv-x="1117" d="M712.611 542.023l-209.455 209.501c-7.127 7.134-16.977 11.547-27.857 11.547s-20.73-4.413-27.857-11.546v0l-90.205-90.205c21.457-14.336 34.723-31.651 36.399-50.362l0.233 0.14v-61.999c0-67.258-24.343-130.327-65.955-179.293l119.529-119.575c15.36-15.36 40.308-15.36 55.715 0l55.761 55.761v62.929c-0.233 2.273-0.366 4.912-0.366 7.581 0 21.76 8.82 41.46 23.080 55.72l87.738 87.738c11.823 11.823 26.996 19.503 43.241 22.109zM516.655 531.55c7.129-7.129 11.539-16.978 11.539-27.857 0-21.758-17.638-39.396-39.396-39.396-10.879 0-20.728 4.41-27.857 11.539v0c-7.129 7.129-11.539 16.978-11.539 27.857 0 21.758 17.638 39.396 39.396 39.396 10.879 0 20.728-4.41 27.857-11.539v0zM769.257 543.047l-9.216 101.19c-0.884 9.55-5.056 17.987-11.358 24.297v0l-240.593 240.547c-7.125 7.12-16.965 11.524-27.834 11.524s-20.709-4.403-27.834-11.524l-210.897-210.897c29.231-3.258 55.994-9.542 78.662-18.246l99.421 99.468c14.252 14.254 33.942 23.070 55.692 23.070s41.439-8.816 55.692-23.070l222.813-222.767c4.189-4.189 7.773-8.751 10.845-13.545h4.608zM319.255 637.581c-29.324 13.964-72.471 23.645-122.321 23.645s-93.091-9.728-122.321-23.645c-32.209-15.36-35.235-28.858-35.235-30.72 0-1.955 3.025-15.453 35.235-30.813 29.277-13.917 72.471-23.599 122.321-23.599 49.804 0 93.044 9.681 122.321 23.599 32.163 15.36 35.188 28.858 35.188 30.767 0 1.955-3.025 15.407-35.188 30.72zM39.377 550.541v-1.396c0.007-102.463 64.918-189.763 155.861-223.030l1.649-0.528 3.91 1.396c16.555 6.291 30.758 13.494 44.060 21.983l-0.959-0.572c66.859 42.76 110.545 116.619 110.545 200.681 0 0.008 0 0.016 0 0.024v-0.001 1.443c-35.933-22.807-93.091-37.516-157.51-37.516s-121.623 14.755-157.556 37.516zM196.887 325.586l-2.979-1.071c-16.964-6.127-31.553-13.299-45.196-21.842l0.978 0.571c-66.647-41.755-110.313-114.795-110.313-198.035 0-0.006 0-0.011 0-0.017v0.001c40.538-39.848 96.174-64.448 157.556-64.448s117.019 24.6 157.588 64.479l-0.032-0.031c-0.003 100.525-63.688 186.174-152.913 218.805l-1.618 0.517-3.072 1.071zM39.377 53.482v-30.394l6.656-4.655c42.050-29.767 94.395-47.581 150.9-47.581s108.85 17.815 151.724 48.134l-0.823-0.553c4.019 2.849 6.609 7.482 6.609 12.721 0 0.011 0 0.023 0 0.034v-0.002 22.295c-43.426-32.512-98.197-52.060-157.533-52.060s-114.107 19.547-158.224 52.554l0.691-0.494zM599.924 364.219c5.007 16.394 20.001 28.113 37.732 28.113 0.006 0 0.011 0 0.017 0h315.112c21.737 0 39.377-17.641 39.377-39.377v-315.113c-0.026-21.728-17.646-39.331-39.377-39.331-0.016 0-0.033 0-0.049 0h-315.064c-21.748 0-39.377 17.63-39.377 39.377v315.113c0.008 2.506 0.244 4.952 0.69 7.323l-0.039-0.249c-0.349 0.766-0.759 1.813-1.125 2.881l-0.085 0.284zM787.735 149.226c21.748 0 39.377 17.63 39.377 39.377s-17.63 39.377-39.377 39.377v0c-21.748 0-39.377-17.63-39.377-39.377s17.63-39.377 39.377-39.377v0zM748.218 109.848c0 21.748-17.63 39.377-39.377 39.377s-39.377-17.63-39.377-39.377v0c0-21.748 17.63-39.377 39.377-39.377s39.377 17.63 39.377 39.377v0zM866.304 228.027c21.748 0 39.377 17.63 39.377 39.377s-17.63 39.377-39.377 39.377v0c-21.748 0-39.377-17.63-39.377-39.377s17.63-39.377 39.377-39.377v0zM636.835 431.71l60.416 60.416c7.122 7.127 16.963 11.538 27.833 11.543h338.154c3.584 0 7.075-0.465 10.426-1.396l-81.315-81.268c-11.326 6.729-24.97 10.706-39.543 10.706-0.040 0-0.080 0-0.12 0h-315.898zM1020.416 393.31c7.075-11.776 11.124-25.6 11.124-40.355v-325.492l0.047-2.839 61.905 74.24c5.676 6.776 9.123 15.588 9.123 25.204 0 0.008 0 0.017 0 0.025v-0.001 340.201c0 0.024 0 0.052 0 0.080 0 3.511-0.459 6.916-1.319 10.157l0.062-0.276-80.989-80.943z" />
<glyph unicode="&#xe90f;" glyph-name="reward-accept" d="M512 960c-75.948 0-150.19-22.521-213.338-64.715s-112.368-102.167-141.432-172.334c-29.064-70.166-36.667-147.377-21.852-221.866 14.817-74.488 51.39-142.91 105.093-196.613s122.125-90.277 196.613-105.093c74.489-14.816 151.698-7.211 221.866 21.852 70.166 29.064 130.139 78.283 172.334 141.432s64.715 137.39 64.715 213.338c0 101.843-40.457 199.515-112.471 271.529-72.012 72.014-169.684 112.471-271.529 112.471zM667.612 634.149l-168.045-167.862c-3.396-3.401-7.431-6.098-11.871-7.939s-9.198-2.787-14.005-2.787c-4.806 0-9.565 0.947-14.005 2.787s-8.474 4.538-11.871 7.939l-66.925 66.925c-6.863 6.863-10.717 16.17-10.717 25.875s3.855 19.012 10.717 25.873 16.17 10.717 25.875 10.717c9.704 0 19.012-3.855 25.873-10.717l41.143-41.143 142.080 141.898c3.398 3.396 7.432 6.093 11.871 7.932 4.44 1.839 9.198 2.785 14.004 2.785s9.564-0.946 14.004-2.785 8.474-4.535 11.872-7.932c3.398-3.398 6.093-7.432 7.932-11.872s2.785-9.198 2.785-14.004c0-4.805-0.946-9.564-2.785-14.004s-4.534-8.474-7.932-11.871v0.182zM788.206 218.949v-210.286c0.125-11.325-2.406-22.519-7.386-32.662s-12.267-18.944-21.263-25.682c-12.098-9.313-26.887-14.344-42.087-14.318-6.574 0-13.118 0.904-19.452 2.684l-169.59 49.396c-18.873 5.634-38.954 5.634-57.826 0l-157.388-48.5c-10.451-3.217-21.505-3.888-32.261-1.961s-20.909 6.402-29.633 13.056c-9.016 6.824-16.331 15.686-21.367 25.876-5.036 10.192-7.65 21.431-7.635 32.824v209.571c79.35-67.161 179.501-103.958 282.945-103.958s203.595 36.796 282.946 103.958z" />
<glyph unicode="&#xe910;" glyph-name="arrow-3-down" d="M5.619 866.057c-11.191-18.651-5.143-42.844 13.509-54.034l432.084-259.25c37.417-22.45 84.162-22.45 121.578 0l432.083 259.25c18.652 11.19 24.702 35.383 13.509 54.034s-35.383 24.7-54.035 13.509l-432.083-259.25c-12.472-7.483-28.054-7.483-40.525 0l-432.085 259.25c-18.651 11.191-42.844 5.143-54.034-13.509zM163.155 498.475c-11.19-18.651-5.142-42.844 13.509-54.035l274.547-164.729c37.417-22.449 84.162-22.449 121.578 0l274.546 164.729c18.652 11.191 24.702 35.384 13.509 54.035s-35.383 24.699-54.035 13.509l-274.546-164.729c-12.472-7.483-28.054-7.483-40.525 0l-274.548 164.729c-18.651 11.19-42.844 5.142-54.034-13.509zM268.231 183.401c-11.19-18.651-5.142-42.844 13.509-54.036l169.523-101.713c37.417-22.449 84.162-22.449 121.578 0l169.523 101.713c18.649 11.192 24.699 35.384 13.506 54.036-11.187 18.651-35.381 24.699-54.032 13.509l-169.523-101.714c-12.472-7.483-28.054-7.483-40.525 0l-169.523 101.714c-18.651 11.19-42.844 5.142-54.035-13.509z" />
<glyph unicode="&#xe911;" glyph-name="giftcard" d="M921.601 729.602h-111.616c5.632 15.872 9.216 33.28 9.216 51.2 0 84.992-68.608 153.6-153.6 153.6-53.76 0-100.352-27.648-128-69.12l-25.6-34.304-25.6 34.816c-27.648 40.96-74.24 68.608-128 68.608-84.992 0-153.6-68.608-153.6-153.6 0-17.92 3.584-35.328 9.216-51.2h-111.616c-56.832 0-101.888-45.568-101.888-102.4l-0.512-563.2c0-56.832 45.568-102.4 102.4-102.4h819.201c56.832 0 102.4 45.568 102.4 102.4v563.2c0 56.832-45.568 102.4-102.4 102.4zM665.601 832.001c28.16 0 51.2-23.040 51.2-51.2s-23.040-51.2-51.2-51.2c-28.16 0-51.2 23.040-51.2 51.2s23.040 51.2 51.2 51.2zM358.401 832.001c28.16 0 51.2-23.040 51.2-51.2s-23.040-51.2-51.2-51.2c-28.16 0-51.2 23.040-51.2 51.2s23.040 51.2 51.2 51.2zM921.601 64.001h-819.201v102.4h819.201v-102.4zM921.601 320.001h-819.201v307.2h260.097l-106.496-144.896 82.944-59.904 173.056 235.52 173.056-235.52 82.944 59.904-106.496 144.896h260.097v-307.2z" />
<glyph unicode="&#xe912;" glyph-name="figure" horiz-adv-x="1536" d="M1453.207 806.406v-716.811h-1370.413v716.811h1370.413zM1453.207 908.807h-1370.413c-45.542 0-82.805-46.081-82.805-102.401v-716.811c0-56.319 37.262-102.4 82.805-102.4h1370.413c45.543 0 82.804 46.081 82.804 102.4v716.811c0 56.32-37.261 102.401-82.804 102.401zM732.724 316.093l176.642 346.95 227.278-460.806h-706.57l176.642 346.054 126.007-232.197z" />
<glyph unicode="&#xe913;" glyph-name="heart" d="M950.857 610.287c0 160.571-108.571 194.286-200 194.286-85.143 0-181.143-92-210.857-127.429-13.714-16.571-42.286-16.571-56 0-29.714 35.429-125.714 127.429-210.857 127.429-91.429 0-200-33.714-200-194.286 0-104.571 105.714-201.714 106.857-202.857l332-320 331.429 319.429c1.714 1.714 107.429 98.857 107.429 203.429zM1024 610.287c0-137.143-125.714-252-130.857-257.143l-356-342.857c-6.857-6.857-16-10.286-25.143-10.286s-18.286 3.429-25.143 10.286l-356.571 344c-4.571 4-130.286 118.857-130.286 256 0 167.429 102.286 267.429 273.143 267.429 100 0 193.714-78.857 238.857-123.429 45.143 44.571 138.857 123.429 238.857 123.429 170.857 0 273.143-100 273.143-267.429z" />
<glyph unicode="&#xe914;" glyph-name="ship" horiz-adv-x="1067" d="M273.94 430.806l2.208 3.473 133.192 208.363c1.947 3.050 6.523 2.735 7.996-0.579 22.25-49.868 41.45-111.887 32.456-150.5-3.84-15.885-14.362-37.397-26.196-57.284-1.525-2.893-3.208-5.734-4.997-8.469-0.842-1.263-2.262-1.997-3.788-1.997h-136.978c-3.682 0-5.839 3.998-3.892 6.993zM867.614 392.091v-32.986c0-1.89-1.156-3.575-2.842-4.309-10.308-4.42-45.606-20.621-60.284-41.033-37.453-52.13-66.069-126.669-130.035-126.669h-266.855c-94.58 0-171.223 76.907-171.223 171.802v3.051c0 2.526 2.051 4.578 4.576 4.578h148.763c2.945 0 5.102-2.735 4.839-5.628-1.053-9.681 0.736-19.571 5.313-28.565 8.837-17.937 27.142-29.141 46.922-29.141h73.643v57.493h-72.802c-3.733 0-5.943 4.314-3.785 7.364 0.785 1.212 1.681 2.475 2.628 3.895 6.891 9.783 16.73 24.986 26.513 42.291 6.682 11.678 13.15 24.145 18.355 36.663 1.054 2.261 1.894 4.578 2.739 6.839 1.417 3.998 2.893 7.731 3.942 11.469 1.054 3.157 1.894 6.468 2.735 9.574 2.475 10.624 3.524 21.884 3.524 33.557 0 4.578-0.209 9.365-0.627 13.943-0.213 4.996-0.845 9.993-1.476 14.991-0.418 4.419-1.207 8.785-2.052 13.361-1.050 6.68-2.522 13.308-4.207 19.989l-0.58 2.524c-1.259 4.577-2.313 8.943-3.785 13.519-4.156 14.362-8.943 28.353-13.995 41.452-1.839 5.208-3.942 10.205-6.050 15.202-3.102 7.523-6.259 14.361-9.152 20.831-1.472 2.946-2.735 5.629-3.998 8.364-1.421 3.104-2.893 6.207-4.365 9.152-1.054 2.262-2.261 4.366-3.102 6.47l-8.998 16.623c-1.263 2.262 0.845 4.945 3.315 4.261l56.444-15.255c0.107 0 0.158-0.053 0.209-0.053l7.42-2.051 11.149-3.156v33.455c0 16.149 12.941 29.248 28.932 29.248 7.996 0 15.258-3.261 20.463-8.574 5.21-5.313 8.469-12.573 8.469-20.673v-49.658l5.999-1.682c0.474-0.159 0.947-0.369 1.365-0.684 1.476-1.105 3.575-2.735 6.259-4.735 2.103-1.682 4.369-3.735 7.104-5.839 5.419-4.365 11.887-9.994 18.987-16.465 1.894-1.63 3.738-3.314 5.419-4.997 9.156-8.522 19.413-18.516 29.197-29.563 2.735-3.104 5.419-6.26 8.154-9.574 2.735-3.367 5.628-6.68 8.154-9.995 3.315-4.419 6.891-8.995 9.993-13.782 1.472-2.262 3.157-4.576 4.578-6.838 3.998-6.049 7.522-12.309 10.889-18.569 1.421-2.893 2.893-6.048 4.156-9.152 3.733-8.364 6.682-16.884 8.576-25.408 0.576-1.839 0.998-3.84 1.207-5.628v-0.422c0.631-2.522 0.841-5.205 1.054-7.94 0.841-8.734 0.418-17.463-1.472-26.249-0.789-3.738-1.843-7.262-3.106-10.995-1.263-3.575-2.526-7.313-4.156-10.837-3.153-7.309-6.891-14.622-11.311-21.461-1.417-2.526-3.102-5.21-4.787-7.731-1.839-2.684-3.733-5.21-5.414-7.68-2.317-3.157-4.787-6.473-7.313-9.417-2.261-3.106-4.578-6.208-7.1-8.943-3.529-4.156-6.895-8.102-10.419-11.891-2.103-2.47-4.365-4.996-6.677-7.258-2.261-2.526-4.578-4.787-6.682-6.891-3.524-3.524-6.473-6.259-8.943-8.521l-5.786-5.316c-0.841-0.734-1.946-1.156-3.106-1.156h-44.817v-57.493h56.393c12.625 0 24.619 4.471 34.295 12.676 3.315 2.893 17.779 15.411 34.876 34.295 0.58 0.636 1.318 1.105 2.159 1.318l155.755 45.026c2.897 0.841 5.841-1.365 5.841-4.416z" />
<glyph unicode="&#xe915;" glyph-name="arrow-right-blunt" horiz-adv-x="819" d="M768 533.843c68.267-39.717 68.267-139.011 0-178.728l-614.4-357.457c-68.267-39.718-153.6 9.929-153.6 89.363v714.915c0 79.435 85.333 129.082 153.6 89.364l614.4-357.458z" />
<glyph unicode="&#xe916;" glyph-name="content_copy" d="M810 42.668v598h-468v-598h468zM810 724.668q34 0 60-25t26-59v-598q0-34-26-60t-60-26h-468q-34 0-60 26t-26 60v598q0 34 26 59t60 25h468zM682 896.668v-86h-512v-598h-84v598q0 34 25 60t59 26h512z" />
<glyph unicode="&#xe917;" glyph-name="clock2" d="M511.998 960c-275.053 0-498.012-229.222-498.012-512.001s222.961-511.999 498.012-511.999c275.051 0 498.016 229.221 498.016 511.999h-99.608c0-226.203-178.383-409.601-398.408-409.601-220.022 0-398.41 183.398-398.41 409.601s178.388 409.6 398.41 409.6c136.955 0 257.772-71.014 329.438-179.2h-130.234v-102.401h298.812v307.201h-99.608v-128c-90.837 124.416-235.509 204.8-398.408 204.8zM462.195 704v-234.752l-161.505-166.042 70.469-72.449 190.639 196.097v277.146h-99.602z" />
<glyph unicode="&#xe918;" glyph-name="menu" d="M0 819.201h1024v-102.4h-1024v102.4zM0 512.001h1024v-102.4h-1024v102.4zM0 204.801h1024v-102.4h-1024v102.4z" />
<glyph unicode="&#xe919;" glyph-name="poligon" d="M512-64c-282.77 0-512 229.229-512 512s229.23 512 512 512c282.772 0 512-229.23 512-512 0-282.772-229.229-512-512-512zM477.152 533.903l69.62 36.832v74.711c0 13.324-6.961 25.682-18.351 32.59l-172.695 104.72c-12.197 7.396-27.502 7.362-39.666-0.086l-170.841-104.612c-11.313-6.928-18.211-19.239-18.211-32.505v-194.835c0-13.169 6.799-25.407 17.981-32.364l171.51-106.7c11.926-7.42 26.965-7.681 39.139-0.677l307.64 176.984c11.009 6.331 24.448 6.764 35.842 1.157l99.73-49.101c13.027-6.413 21.278-19.672 21.278-34.194v-116.591c0-13.811-7.471-26.542-19.53-33.276l-100.771-56.276c-11.742-6.554-26.067-6.439-37.702 0.304l-96.359 55.865c-11.759 6.82-18.994 19.384-18.994 32.977v60.911l-69.62-40.922v-71.74c0-13.819 7.484-26.559 19.555-33.289l166.154-92.62c11.249-6.267 24.897-6.435 36.296-0.446l177.378 93.253c12.53 6.588 20.378 19.577 20.378 33.735v205.557c0 13.661-7.312 26.277-19.161 33.066l-177.73 101.853c-11.836 6.783-26.396 6.723-38.177-0.159l-306.756-179.2c-11.878-6.94-26.574-6.94-38.452 0l-94.982 55.492c-11.697 6.832-18.887 19.362-18.887 32.908v110.743c0 13.547 7.191 26.076 18.887 32.909l95.543 55.819c11.577 6.764 25.857 6.947 37.603 0.482l102.609-56.472c12.175-6.7 19.74-19.495 19.74-33.391v-63.413z" />
<glyph unicode="&#xe91a;" glyph-name="tracking" d="M815.22 346.972c-2.675 0-5.048-0.707-7.826-0.808l-152.849 261.38c28.415 28.167 47.821 64.141 55.756 103.358 7.934 39.215 4.040 79.905-11.19 116.903s-41.11 68.638-74.352 90.903c-33.244 22.265-72.352 34.152-112.362 34.152s-79.119-11.887-112.363-34.152-59.122-53.905-74.352-90.903-19.124-77.688-11.19-116.903c7.935-39.216 27.341-75.19 55.758-103.358l-152.396-261.43c-2.877 0.151-5.502 0.858-8.379 0.858-37.796 0.131-74.868-10.347-107.002-30.244-32.134-19.896-58.038-48.412-74.766-82.304s-23.608-71.798-19.857-109.406c3.751-37.608 17.982-73.408 41.074-103.329s54.119-52.758 89.549-65.915c35.43-13.159 73.843-16.109 110.867-8.514 37.024 7.593 71.174 25.427 98.564 51.471s46.919 59.251 56.369 95.846h216.151c9.496-36.49 29.035-69.584 56.398-95.526s61.45-43.692 98.393-51.232c36.945-7.542 75.261-4.571 110.602 8.573s66.286 35.935 89.323 65.784 37.242 65.559 41.003 103.076c3.76 37.517-3.076 75.338-19.731 109.164s-42.463 62.305-74.491 82.201c-32.030 19.896-68.995 30.411-106.699 30.354zM620.422 195.535h-216.151c-12.82 49.634-44.065 92.521-87.379 119.938l140.986 241.794c35.498-11.208 73.588-11.208 109.086 0l141.341-241.592c-43.565-27.352-75.010-70.339-87.884-120.14z" />
<glyph unicode="&#xe91b;" glyph-name="sword" d="M517.664 190.945c5.152-4.992 9.28-10.944 12.096-17.536s4.32-13.664 4.384-20.832c0.064-7.168-1.312-14.272-4.032-20.896s-6.72-12.672-11.776-17.728c-5.056-5.056-11.104-9.088-17.728-11.808s-13.728-4.096-20.896-4c-7.168 0.064-14.24 1.568-20.832 4.384s-12.544 6.944-17.536 12.096l-76.32 76.32-152.672-152.704c10.112-10.112 15.808-23.872 15.808-38.176s-5.696-28.032-15.84-38.176-23.872-15.808-38.176-15.808c-14.304 0-28.064 5.696-38.176 15.84l-76.32 76.32c-10.144 10.112-15.808 23.84-15.84 38.176s5.664 28.064 15.808 38.176c10.112 10.112 23.84 15.808 38.176 15.84s28.064-5.696 38.176-15.808l152.704 152.672-76.32 76.32c-9.824 10.176-15.264 23.808-15.136 37.984s5.792 27.712 15.808 37.696c10.016 10.016 23.552 15.68 37.696 15.808s27.776-5.312 37.984-15.136l228.992-228.992zM579.296 246.049l-229.088 229.024 426.976 425.472 243.2 15.616-14.144-244.64-426.912-425.472z" />
<glyph unicode="&#xe91c;" glyph-name="messages-nav" d="M113.71 857.357c-62.8 0-113.711-52.364-113.711-116.958 0-5.913 2.646-11.516 7.211-15.273l433.449-356.667c20.765-17.086 45.9-25.631 71.034-25.631v514.53h-397.985zM5.177 631.834c21.593-7.145 43.352-15.097 60.914-29.55l223.035-183.525-288.517-237.406v452.067c1.513-0.549 3.035-1.079 4.567-1.585zM8.428 112.893l326.204 268.422 71.12-58.524c62.294-51.257 150.808-51.257 213.102 0l71.12 58.524 326.205-268.422c-16.584-43.469-57.745-74.251-105.89-74.251h-795.971c-48.148 0-89.306 30.783-105.891 74.251zM735.48 418.759l288.519-237.406v474.814l-288.519-237.408zM910.29 857.354c62.8 0 113.709-52.364 113.709-116.958 0-5.913-2.646-11.516-7.21-15.273l-433.452-356.667c-20.765-17.086-45.899-25.628-71.033-25.628v514.527h397.986z" />
<glyph unicode="&#xe91d;" glyph-name="launch" d="M598 810.668h298v-298h-86v152l-418-418-60 60 418 418h-152v86zM810 128.668v298h86v-298q0-34-26-60t-60-26h-596q-36 0-61 25t-25 61v596q0 36 25 61t61 25h298v-86h-298v-596h596z" />
<glyph unicode="&#xe91e;" glyph-name="solana" d="M0 448.001c0-282.77 229.23-512 512-512s512 229.23 512 512v0c0 282.77-229.23 512-512 512s-512-229.23-512-512v0zM319.616 327.51c3.75 3.668 8.887 5.931 14.553 5.931 0.014 0 0.027 0 0.041 0h502.867c9.173 0 13.781-10.923 7.253-17.28l-99.328-97.493c-3.749-3.667-8.885-5.93-14.549-5.931h-502.87c-0.068-0.002-0.148-0.003-0.228-0.003-5.561 0-10.069 4.508-10.069 10.069 0 2.827 1.165 5.382 3.041 7.211l0.002 0.002 99.285 97.493zM319.616 691.542c3.793 3.614 8.928 5.849 14.584 5.888h502.877c9.173 0 13.781-10.88 7.253-17.237l-99.328-97.493c-3.749-3.667-8.885-5.93-14.549-5.931h-502.87c-0.068-0.002-0.148-0.003-0.228-0.003-5.561 0-10.069 4.508-10.069 10.069 0 2.827 1.165 5.382 3.041 7.211l0.002 0.002 99.243 97.493zM730.496 516.609c5.622 0 10.724-2.229 14.47-5.851l-0.006 0.006h0.085l99.285-97.621c6.613-6.315 1.963-17.109-7.125-17.237l-502.997 0.043c-0.024 0-0.053 0-0.082 0-5.644 0-10.764 2.246-14.514 5.893l0.005-0.005-99.328 97.493c-6.528 6.443-1.877 17.237 7.296 17.28z" />
<glyph unicode="&#xe91f;" glyph-name="marketplace-nav" d="M920.258 538.622c19.913-3.37 33.328-22.246 29.956-42.161l-41.264-243.836c-14.889-87.965-91.081-152.349-180.294-152.349h-433.573c-89.215 0-165.407 64.384-180.294 152.346l-41.265 243.839c-3.37 19.914 16.141-33.839 36.056-30.466 19.914 3.369 32.691 62.586 36.061 42.671l41.265-243.836c8.932-52.78 54.647-91.41 108.176-91.41h433.573c53.529 0 99.244 38.631 108.174 91.41l41.264 243.836c3.372 19.914 22.246 33.327 42.163 29.956zM512 398.476c20.199 0 36.571-16.373 36.571-36.571v-90.021c0-20.199-16.373-36.571-36.571-36.571s-36.571 16.373-36.571 36.571v90.021c0 20.199 16.373 36.571 36.571 36.571zM694.857 398.48c20.199 0 36.571-16.373 36.571-36.571v-90.021c0-20.199-16.373-36.571-36.571-36.571s-36.571 16.373-36.571 36.571v90.021c0 20.199 16.373 36.571 36.571 36.571zM609.415 793.008c19.021 6.793 39.961-3.16 46.771-22.231l84.615-236.929c6.809-19.071-3.086-40.039-22.107-46.831s-39.965 3.16-46.775 22.231l-84.615 236.929c-6.809 19.071 3.090 40.039 22.111 46.831zM425.834 793.008c-19.021 6.793-38.689 0.404-43.929-14.271l-65.106-182.306-20.57-57.29 76.796-0.001 12.657 32.691 65.104 182.306c5.241 14.675-5.929 32.078-24.953 38.87zM329.143 398.48c20.198 0 36.571-16.373 36.571-36.571v-90.021c0-20.199-16.374-36.571-36.571-36.571s-36.571 16.373-36.571 36.571v90.021c0 20.199 16.374 36.571 36.571 36.571zM0 502.567c0 20.198 16.374 36.571 36.571 36.571h950.857c20.199 0 36.571-16.374 36.571-36.571s-16.373-36.573-36.571-36.573h-950.857c-20.198 0-36.571 16.375-36.571 36.573z" />
<glyph unicode="&#xe920;" glyph-name="youtube" d="M1013.8 652.801c0 0-10 70.6-40.8 101.6-39 40.8-82.6 41-102.6 43.4-143.2 10.4-358.2 10.4-358.2 10.4h-0.4c0 0-215 0-358.2-10.4-20-2.4-63.6-2.6-102.6-43.4-30.8-31-40.6-101.6-40.6-101.6s-10.2-82.8-10.2-165.8v-77.6c0-82.8 10.2-165.8 10.2-165.8s10-70.6 40.6-101.6c39-40.8 90.2-39.4 113-43.8 82-7.8 348.2-10.2 348.2-10.2s215.2 0.4 358.4 10.6c20 2.4 63.6 2.6 102.6 43.4 30.8 31 40.8 101.6 40.8 101.6s10.2 82.8 10.2 165.8v77.6c-0.2 82.8-10.4 165.8-10.4 165.8zM406.2 315.201v287.8l276.6-144.4-276.6-143.4z" />
<glyph unicode="&#xe921;" glyph-name="search" d="M660.48 239.617c-68.622-53.712-156.164-86.131-251.277-86.131-226.216 0-409.6 183.384-409.6 409.6s183.384 409.6 409.6 409.6c226.216 0 409.6-183.384 409.6-409.6 0-95.113-32.419-182.654-86.809-252.177l0.678 0.9 273.92-272.896-72.704-72.704-272.896 273.408zM409.6 256.001c169.662 0 307.2 137.538 307.2 307.2s-137.538 307.2-307.2 307.2v0c-169.662 0-307.2-137.538-307.2-307.2s137.538-307.2 307.2-307.2v0z" />
<glyph unicode="&#xe922;" glyph-name="metapassport-nav" d="M113.778 789.333c-62.838 0-113.778-50.94-113.778-113.778v-455.109c0-62.839 50.94-113.779 113.778-113.779h796.443c62.839 0 113.779 50.94 113.779 113.779v455.109c0 62.838-50.94 113.778-113.779 113.778h-796.443zM852.002 590.222c0-47.128-38.208-85.333-85.333-85.333-47.129 0-85.333 38.205-85.333 85.333s38.204 85.333 85.333 85.333c47.125 0 85.333-38.205 85.333-85.333zM627.431 406.047c-8.759 35.832 18.377 70.397 55.262 70.397h167.949c36.889 0 64.021-34.565 55.262-70.397l-34.765-142.222c-6.225-25.468-29.047-43.379-55.262-43.379h-98.419c-26.215 0-49.037 17.911-55.257 43.379l-34.769 142.222zM113.778 618.667c0 15.709 12.735 28.445 28.444 28.445h398.224c15.71 0 28.441-12.735 28.441-28.445s-12.732-28.445-28.441-28.445h-398.224c-15.709 0-28.444 12.735-28.444 28.445zM142.222 533.333c-15.709 0-28.444-12.735-28.444-28.445s12.735-28.444 28.444-28.444h284.445c15.71 0 28.446 12.735 28.446 28.444s-12.736 28.445-28.446 28.445h-284.445zM133.891 305.779c-11.108-11.111-11.108-29.12 0-40.226 11.108-11.111 29.118-11.111 40.227 0l10.133 10.129c1.381-3.695 3.559-7.159 6.53-10.129 11.108-11.111 29.118-11.111 40.227 0l10.133 10.129c1.381-3.695 3.559-7.159 6.53-10.129 11.108-11.111 29.118-11.111 40.227 0l10.132 10.129c1.382-3.695 3.559-7.159 6.53-10.129 11.108-11.111 29.118-11.111 40.227 0l10.133 10.129c1.381-3.695 3.559-7.159 6.53-10.129 11.108-11.111 29.118-11.111 40.226 0l10.133 10.129c1.381-3.695 3.559-7.159 6.53-10.129 11.109-11.111 29.118-11.111 40.225 0l10.133 10.129c1.383-3.695 3.559-7.159 6.532-10.129 11.106-11.111 29.116-11.111 40.226 0l20.113 20.113c11.106 11.106 11.106 29.116 0 40.226-11.111 11.106-29.12 11.106-40.226 0l-10.133-10.133c-1.383 3.695-3.559 7.159-6.528 10.133-11.111 11.106-29.12 11.106-40.231 0l-10.129-10.133c-1.383 3.695-3.56 7.159-6.531 10.133-11.108 11.106-29.118 11.106-40.227 0l-10.133-10.133c-1.381 3.695-3.559 7.159-6.53 10.133-11.108 11.106-29.118 11.106-40.226 0l-10.133-10.133c-1.382 3.695-3.559 7.159-6.53 10.133-11.108 11.106-29.118 11.106-40.227 0l-10.133-10.133c-1.381 3.695-3.558 7.159-6.53 10.133-11.108 11.106-29.118 11.106-40.227 0l-10.133-10.133c-1.381 3.695-3.559 7.159-6.53 10.133-11.108 11.106-29.118 11.106-40.226 0l-20.113-20.113z" />
<glyph unicode="&#xe923;" glyph-name="dashboard-nav" d="M180.984 754.429l662.032-0.001c57.114 0 103.42-45.731 103.42-102.143v-408.57h77.565c0-56.413-46.305-102.144-103.42-102.144h-817.161c-57.117 0-103.42 45.731-103.419 102.144h77.564v408.57c0 56.412 46.302 102.143 103.42 102.143zM180.984 703.357c-28.558 0-51.71-22.865-51.71-51.072v-408.57h760.664v408.57c0 28.206-23.155 51.071-51.71 51.071l-657.244 0.001zM229.819 601.214h568.809c14.279 0 25.855-11.433 25.855-25.536s-11.575-25.536-25.855-25.536h-568.809c-14.279 0-25.855 11.433-25.855 25.536s11.575 25.536 25.855 25.536zM410.805 473.535c0-14.103 11.575-25.535 25.855-25.535h361.969c14.279 0 25.855 11.432 25.855 25.535s-11.575 25.536-25.855 25.536h-361.969c-14.279 0-25.855-11.433-25.855-25.536zM410.805 371.393c0-14.103 11.575-25.537 25.855-25.537h361.969c14.279 0 25.855 11.434 25.855 25.537s-11.575 25.535-25.855 25.535h-361.969c-14.279 0-25.855-11.432-25.855-25.535zM255.674 499.071h51.71c28.558 0 51.711-22.865 51.711-51.071v-51.072c0-28.205-23.153-51.072-51.711-51.072h-51.71c-28.559 0-51.71 22.867-51.71 51.072v51.072c0 28.206 23.151 51.071 51.71 51.071z" />
<glyph unicode="&#xe924;" glyph-name="ethereum" d="M0 448.001c0 282.77 229.23 512 512 512s512-229.23 512-512c0-282.769-229.231-512-512-512s-512 229.231-512 512zM510.498 278.226l-203.29 123.665 203.166-295.223 203.392 295.223-203.268-123.665zM513.519 789.334l-203.206-347.657 203.206-123.883 203.29 123.755-203.29 347.785z" />
<glyph unicode="&#xe925;" glyph-name="share" d="M820.434 236.209c-39.069 0-74.024-15.422-100.756-39.582l-366.523 213.334c2.57 11.823 4.627 23.647 4.627 35.984s-2.057 24.16-4.627 35.984l362.41 211.275c27.759-25.702 64.257-41.639 104.868-41.639 85.334 0 154.217 68.883 154.217 154.217s-68.883 154.217-154.217 154.217c-85.334 0-154.217-68.883-154.217-154.217 0-12.337 2.057-24.16 4.627-35.984l-362.41-211.278c-27.759 25.702-64.257 41.639-104.868 41.639-85.334 0-154.217-68.882-154.217-154.215s68.883-154.217 154.217-154.217c40.611 0 77.109 15.936 104.868 41.639l366.009-213.847c-2.57-10.795-4.112-22.105-4.112-33.413 0-82.763 67.341-150.105 150.105-150.105s150.105 67.341 150.105 150.105c0 82.763-67.341 150.105-150.105 150.105zM820.434 857.189c28.274 0 51.406-23.133 51.406-51.406s-23.133-51.406-51.406-51.406c-28.274 0-51.406 23.133-51.406 51.406s23.133 51.406 51.406 51.406zM203.566 394.539c-28.274 0-51.406 23.133-51.406 51.406s23.133 51.406 51.406 51.406c28.274 0 51.406-23.133 51.406-51.406s-23.133-51.406-51.406-51.406zM820.434 33.671c-28.274 0-51.406 23.133-51.406 51.406s23.133 51.406 51.406 51.406c28.274 0 51.406-23.133 51.406-51.406s-23.133-51.406-51.406-51.406z" />
<glyph unicode="&#xe926;" glyph-name="tiktok" horiz-adv-x="1067" d="M689.497-63.998c37.094 0 67.167 29.828 67.167 66.621s-30.071 66.621-67.167 66.621h-10.116c37.094 0 67.167-29.828 67.167-66.621s-30.071-66.621-67.167-66.621h10.116zM678.502 69.242h-10.121c-37.090 0-67.167-29.828-67.167-66.621s30.076-66.621 67.167-66.621h10.121c-37.099 0-67.171 29.828-67.171 66.621s30.071 66.621 67.171 66.621v0zM167.71 65.645v33.766h122.363l-11.040-34.679h-32.198v-127.762h-39.57v128.675h-39.555zM491.519 65.645v33.766h122.365l-11.038-34.679h-32.201v-127.762h-39.569v128.675h-39.556zM316.777 99.412c-10.669 0-19.305-8.585-19.305-19.166s8.636-19.157 19.305-19.162c10.684 0 19.324 8.58 19.324 19.162s-8.646 19.166-19.324 19.166zM336.101 47.375h-38.629v-110.418h38.629v110.418zM352.632-63.030v162.442h38.643v-75.739l38.634 38.327h46.919l-48.762-47.462 54.287-78.482h-41.399l-37.717 53.85-11.961-10.961v-41.975h-38.643zM769.498-63.030v162.442h38.647v-75.739l38.643 38.327h46.916l-48.759-47.462 54.285-78.482h-41.404l-37.726 53.85-11.955-10.961v-41.975h-38.647zM746.364 2.652c0-36.791-30.076-66.616-67.171-66.616h-0.917c-37.094 0-67.163 29.824-67.163 66.616s30.067 66.625 67.163 66.625h0.917c37.094 0 67.171-29.833 67.171-66.625zM678.703 35.049c-18.039 0-32.67-14.494-32.67-32.393 0-17.894 14.63-32.397 32.67-32.401 18.027 0 32.657 14.507 32.657 32.401 0 17.899-14.63 32.393-32.657 32.393zM709.939 661.643c53.363-38.127 118.747-60.562 189.351-60.562v135.807c-13.363-0.006-26.692 1.388-39.765 4.159v-106.901c-70.602 0-135.971 22.435-189.351 60.562v-277.137c0-138.642-112.445-251.023-251.147-251.023-51.75 0-99.855 15.637-139.815 42.458 45.607-46.609 109.208-75.525 179.568-75.525 138.715 0 251.164 112.385 251.164 251.027v277.134h-0.004zM759.007 798.676c-27.273 29.779-45.18 68.267-49.054 110.817v17.466h-37.683c9.481-54.076 41.835-100.279 86.738-128.283zM367.010 315.401c-15.236 19.968-23.472 44.399-23.435 69.514 0 63.411 51.434 114.821 114.89 114.821 11.823 0.009 23.578-1.805 34.85-5.376v138.837c-13.171 1.804-26.462 2.569-39.753 2.287v-108.066c-11.277 3.571-23.035 5.389-34.864 5.38-63.453 0-114.883-51.409-114.883-114.826 0-44.838 25.707-83.662 63.195-102.572zM670.255 694.689c53.38-38.127 118.751-60.561 189.356-60.561v106.901c-39.411 8.387-74.301 28.974-100.536 57.607-44.898 28.004-77.253 74.206-86.738 128.283h-98.979v-542.421c-0.226-63.236-51.571-114.437-114.89-114.437-37.312 0-70.461 17.775-91.453 45.312-37.488 18.91-63.195 57.732-63.195 102.572 0 63.411 51.429 114.821 114.883 114.821 12.156 0 23.875-1.89 34.866-5.376v108.065c-136.267-2.813-245.86-114.098-245.86-250.961 0-68.323 27.292-130.258 71.583-175.51 39.96-26.82 88.065-42.458 139.815-42.458 138.702 0 251.147 112.389 251.147 251.023v277.143zM859.317 741.029v28.906c-35.541-0.054-70.38 9.894-100.536 28.706 26.692-29.207 61.841-49.349 100.536-57.612zM672.042 926.941c-0.909 5.167-1.6 10.37-2.082 15.594v17.466h-136.671v-542.425c-0.218-63.232-51.563-114.433-114.884-114.433-18.592 0-36.142 4.407-51.687 12.25 20.992-27.533 54.14-45.308 91.452-45.308 63.313 0 114.663 51.2 114.89 114.433v542.423h98.983zM453.331 635.472v30.773c-11.418 1.562-22.932 2.342-34.458 2.336-138.718 0-251.163-112.387-251.163-251.011 0-86.913 44.193-163.508 111.348-208.565-44.29 45.252-71.583 107.188-71.583 175.506 0 136.863 109.587 248.147 245.855 250.96z" />
<glyph unicode="&#xe927;" glyph-name="games-nav" d="M346.484 782.714c-191.358 0-346.484-155.126-346.484-346.484v-130.461c0-94.093 68.024-174.391 160.835-189.863 59.891-9.98 120.983 8.883 164.82 50.893l18.259 17.497c93.965 90.052 242.207 90.052 336.171 0l18.257-17.497c43.84-42.009 104.93-60.873 164.821-50.893 92.813 15.471 160.836 95.769 160.836 189.863v130.461c0 191.358-155.127 346.484-346.483 346.484h-331.033zM766.391 543.987c23.97 0 43.401 19.431 43.401 43.399s-19.431 43.399-43.401 43.399c-23.966 0-43.396-19.431-43.396-43.399s19.431-43.399 43.396-43.399zM282.224 630.755c23.969 0 43.399-19.431 43.399-43.399v-10.85c0-29.961 24.288-54.249 54.249-54.249h10.85c23.969 0 43.399-19.431 43.399-43.399s-19.429-43.399-43.399-43.399h-10.85c-29.961 0-54.249-24.289-54.249-54.249v-10.85c0-23.967-19.431-43.398-43.399-43.398s-43.399 19.431-43.399 43.398v10.85c0 29.961-24.289 54.249-54.249 54.249h-10.85c-23.969 0-43.399 19.431-43.399 43.399s19.431 43.399 43.399 43.399h10.85c29.961 0 54.249 24.288 54.249 54.249v10.85c0 23.969 19.431 43.399 43.399 43.399zM809.792 370.386c0-23.969-19.431-43.399-43.401-43.399-23.966 0-43.396 19.431-43.396 43.399s19.431 43.4 43.396 43.4c23.97 0 43.401-19.431 43.401-43.4zM701.257 478.919c0 23.969-19.431 43.399-43.396 43.399-23.97 0-43.401-19.431-43.401-43.399s19.431-43.399 43.401-43.399c23.966 0 43.396 19.431 43.396 43.399zM874.855 522.317c23.97 0 43.401-19.431 43.401-43.399s-19.431-43.399-43.401-43.399c-23.966 0-43.396 19.431-43.396 43.399s19.431 43.399 43.396 43.399z" />
<glyph unicode="&#xe928;" glyph-name="skills-nav" d="M158.017 510.073c7.374 21.213 37.374 21.213 44.747 0l27.905-80.28c3.253-9.358 11.986-15.703 21.891-15.905l84.973-1.731c22.453-0.458 31.724-28.989 13.827-42.558l-67.727-51.345c-7.894-5.986-11.231-16.252-8.362-25.736l24.611-81.348c6.504-21.495-17.767-39.13-36.201-26.304l-69.763 48.546c-8.132 5.657-18.926 5.657-27.058 0l-69.763-48.546c-18.434-12.826-42.704 4.809-36.201 26.304l24.611 81.348c2.869 9.485-0.467 19.75-8.362 25.736l-67.727 51.345c-17.896 13.568-8.625 42.099 13.827 42.558l84.973 1.731c9.905 0.202 18.638 6.547 21.89 15.905l27.905 80.28zM821.24 510.073c7.373 21.213 37.371 21.213 44.744 0l27.904-80.28c3.255-9.358 11.989-15.703 21.892-15.905l84.975-1.731c22.451-0.458 31.723-28.989 13.828-42.558l-67.729-51.345c-7.894-5.986-11.23-16.252-8.362-25.736l24.614-81.348c6.503-21.495-17.771-39.13-36.203-26.304l-69.764 48.546c-8.132 5.657-18.927 5.657-27.059 0l-69.76-48.546c-18.436-12.826-42.705 4.809-36.203 26.304l24.61 81.348c2.871 9.485-0.465 19.75-8.358 25.736l-67.729 51.345c-17.894 13.568-8.628 42.099 13.828 42.558l84.975 1.731c9.903 0.202 18.637 6.547 21.888 15.905l27.909 80.28zM534.38 391.642c-7.377 21.212-37.376 21.212-44.749 0l-27.904-80.281c-3.255-9.357-11.985-15.701-21.892-15.902l-84.973-1.732c-22.453-0.457-31.723-28.992-13.827-42.556l67.727-51.349c7.894-5.986 11.231-16.252 8.362-25.732l-24.611-81.352c-6.503-21.495 17.767-39.13 36.2-26.3l69.764 48.546c8.132 5.657 18.927 5.657 27.059 0l69.76-48.546c18.436-12.83 42.705 4.805 36.203 26.3l-24.61 81.352c-2.871 9.48 0.465 19.746 8.358 25.732l67.729 51.349c17.894 13.568 8.628 42.099-13.828 42.556l-84.97 1.732c-9.907 0.2-18.641 6.545-21.892 15.902l-27.904 80.281zM512.039 558.030c76.744 0 138.961 61.757 138.961 137.938s-62.216 137.939-138.961 137.939c-76.749 0-138.963-61.757-138.963-137.939s62.214-137.938 138.963-137.938zM304.49 435.412c9.651 25.822 31.161 46.545 60.247 53.593 47.521 11.513 105.54 23.045 147.302 23.045s99.78-11.532 147.302-23.045c29.086-7.047 50.594-27.77 60.245-53.59l-33.6-0.685c-44.906-0.915-63.445-57.978-27.652-85.114l41.015-31.095c-1.506-3.23-3.503-6.216-5.914-8.973-6.703 4.075-14.715 6.562-23.808 6.75l-84.975 1.732-27.904 80.277c-14.746 42.427-74.748 42.426-89.493 0l-27.904-80.277-84.975-1.732c-9.072-0.184-17.070-2.662-23.759-6.72-2.412 2.757-4.406 5.747-5.91 8.981l40.965 31.057c35.792 27.136 17.251 84.198-27.654 85.114l-33.528 0.683z" />
<glyph unicode="&#xe929;" glyph-name="quests-nav" d="M0.001 112.499v127.995h127.996l0.029 543.010c0 70.69 57.306 127.996 127.996 127.996h639.983c70.687 0 127.995-57.306 127.995-127.996v-367.617l-0.005 0.002-0.026-303.396c0-70.691-57.303-127.99-127.995-127.995h-767.978c-70.69 0-127.996 57.308-127.996 128zM487.076 847.502l-231.053 0.001c-35.346 0-63.999-28.653-63.999-63.998l-0.029-543.010h639.984v-127.995c0-35.349 28.651-64 63.995-64 35.349 0 64 28.651 64 63.995l0.026 369.023v301.986c0 35.346-28.651 63.999-63.995 63.999l-408.931 0.001zM562.699 776.301c-204.863 0-267.898-83.836-267.898-201.206 0-80.445 29.612-145.137 114.206-177.879 9.939 14.973 24.267 32.948 39.589 40.327 3.184 1.533 5.346-3.206 3.186-6.008-9.633-12.497-17.896-33.991-20.879-55.255-2.273-23.429-1.455-53.494 4.114-79.621 0.681-3.195 5.044-3.476 6.421-0.523 21.41 45.968 70.496 77.758 124.097 77.758 202.69 0.773 265.063 120.844 265.063 201.201 0 117.37-63.033 201.206-267.899 201.206zM462.238 581.712c0-18.69-14.992-33.842-33.488-33.842s-33.488 15.152-33.488 33.842c0 18.69 14.993 33.842 33.488 33.842s33.488-15.152 33.488-33.842zM596.188 581.712c0-18.69-14.997-33.842-33.49-33.842s-33.485 15.152-33.485 33.842c0 18.69 14.991 33.842 33.485 33.842s33.49-15.152 33.49-33.842zM730.138 581.712c0-18.69-14.997-33.842-33.49-33.842s-33.485 15.152-33.485 33.842c0 18.69 14.991 33.842 33.485 33.842s33.49-15.152 33.49-33.842z" />
<glyph unicode="&#xe92a;" glyph-name="search-2" d="M731.847 315.975h-46.252l-16.395 15.805c57.381 66.745 91.923 153.397 91.923 247.66 0 210.185-170.377 380.559-380.564 380.559-210.185 0-380.559-170.374-380.559-380.559 0-210.188 170.374-380.564 380.559-380.564 94.263 0 180.916 34.544 247.66 91.923l15.805-16.395v-46.252l292.743-292.153 87.233 87.233-292.153 292.743zM380.56 315.975c-145.781 0-263.464 117.678-263.464 263.465 0 145.781 117.682 263.464 263.464 263.464 145.787 0 263.465-117.682 263.465-263.464 0-145.787-117.678-263.465-263.465-263.465z" />
<glyph unicode="&#xe92b;" glyph-name="clock" horiz-adv-x="1056" d="M512 866.913c-231.36 0-418.912-187.552-418.912-418.912s187.552-418.912 418.912-418.912c130.24 0 246.56 59.36 323.456 152.704 16.352 19.84 45.696 22.688 65.536 6.336s22.656-45.664 6.336-65.504c-93.824-113.888-236.096-186.592-395.296-186.592-282.784 0-512 229.216-512 512s229.216 512 512 512c62.528 0 122.528-11.232 178.048-31.808 24.096-8.928 36.384-35.712 27.456-59.84s-35.712-36.384-59.84-27.456c-45.312 16.8-94.368 26.016-145.664 26.016zM512 773.825c25.696 0 46.56-20.832 46.56-46.56v-279.264c0-17.632-9.952-33.76-25.728-41.632l-186.176-93.088c-23.008-11.488-50.944-2.176-62.432 20.8s-2.176 50.944 20.8 62.432l160.448 80.224v250.496c0 25.696 20.832 46.56 46.56 46.56zM887.552 882.913c-1.024 9.728 0 19.552 3.008 28.864s7.968 17.856 14.528 25.152c6.56 7.264 14.56 13.088 23.488 17.056s18.624 6.048 28.416 6.048c9.792 0 19.456-2.048 28.416-6.048s16.96-9.792 23.488-17.056c6.56-7.264 11.488-15.84 14.528-25.152s4.064-19.136 3.040-28.864l-27.008-316.928c-1.088-10.496-6.048-20.192-13.888-27.232s-18.016-10.944-28.544-10.944-20.736 3.904-28.544 10.944c-7.84 7.040-12.768 16.768-13.888 27.232l-27.008 316.928zM906.624 372.449c0 6.752 1.312 13.44 3.904 19.68s6.368 11.904 11.168 16.672c4.768 4.768 10.464 8.576 16.704 11.168s12.928 3.904 19.68 3.904 13.44-1.344 19.68-3.904c6.24-2.592 11.904-6.368 16.704-11.168s8.576-10.432 11.168-16.672c2.592-6.24 3.904-12.928 3.904-19.68 0-13.632-5.408-26.72-15.072-36.352s-22.752-15.072-36.384-15.072c-13.632 0-26.752 5.408-36.384 15.072s-15.072 22.72-15.072 36.352z" />
<glyph unicode="&#xe92c;" glyph-name="rocket" d="M997.376 939.521c-88.558 12.288-174.257-6.568-254.199-44.632-154.2-73.446-288.839-219.171-386.754-357.199-33.545 17.726-82.308 28.036-137.569 12.5-65.324-18.361-136.58-71.857-201.587-184.567l0.065 0.115c-2.42-3.969-3.815-8.632-3.815-13.621 0-7.285 2.973-13.876 7.775-18.627l-0.006 0.006c4.835-4.711 11.442-7.613 18.726-7.613 4.598 0 8.925 1.156 12.565 3.123 74.646 38.241 150.069 38.065 193.501 30.579-6.603-12.394-12.676-24.329-18.326-35.734l-6.003-12.288 163.204-163.204 12.253 6.038c11.405 5.579 23.305 11.688 35.663 18.255 7.45-43.432 7.556-118.784-30.614-193.359l0.070 0.143c-2.038-3.783-3.194-8.111-3.194-12.708 0-7.267 2.888-13.859 7.573-18.684l0.003-0.003c4.75-4.812 11.35-7.794 18.646-7.794 4.98 0 9.635 1.389 13.484 3.736 112.746 65.042 166.241 136.298 184.602 201.622 15.537 55.155 5.226 103.883-12.429 137.428l4.865 3.307c30.631 21.907 60.461 44.863 86.73 66.643 106.92 88.029 208.296 196.361 265.64 316.84 38.065 79.907 56.956 165.606 44.668 254.164l-1.871 13.665-13.665 1.871zM586.717 154.572c-13.277-47.245-50.812-103.706-136.157-159.426 30.72 78.777 27.118 154.165 17.655 196.926l8.123 4.321c37.008 21.348 73.126 44.066 102.505 64.357 12.606-25.812 19.95-63.276 7.874-106.178zM393.71 194.649l-125.705 125.705c6.991 13.806 14.724 28.354 23.128 43.538l4.873 8.757 150.034-149.998 6.802 3.585c-16.907-9.673-34.037-19.001-59.131-31.621zM68.396 377.31c55.72 85.31 112.181 122.88 159.426 136.157 42.973 12.076 80.543 4.696 106.319-7.945l3.757 5.828c-23.997-35.143-46.703-71.238-72.4-116.385-42.761 9.428-118.219 13.065-197.102-17.655zM480.856 242.848l-164.617 164.652c23.175 38.768 43.182 69.443 64.15 99.395l-3.558-5.364c94.632 136.545 224.009 279.446 369.558 353.103l181.601-181.601c-54.802-108.332-148.056-207.872-248.938-290.957-58.216-48.046-122.94-93.992-190.9-135.129l-7.297-4.1zM976.755 903.363c6.497-65.783-5.72-130.33-31.426-192.618l-161.227 161.192c62.323 25.706 126.87 37.923 192.653 31.426zM332.906 151.535c4.237-12.641 1.695-27.118-5.65-41.101-7.38-14.018-20.198-28.743-39.194-43.785-37.959-30.014-103.636-63.594-211.933-96.185-2.322-0.763-4.995-1.202-7.77-1.202-14.197 0-25.706 11.509-25.706 25.706 0 2.775 0.44 5.448 1.254 7.952l-0.051-0.182c32.556 108.297 66.136 174.009 96.185 211.933 15.042 19.032 29.767 31.815 43.785 39.194 13.983 7.38 28.425 9.887 41.066 5.65l-13.277-36.264c-0.071 0.035-3.425 1.024-11.052-3.001-7.592-3.99-18.185-12.359-30.967-28.531-23.87-30.19-53.213-84.851-82.979-178.494 93.643 29.767 148.303 59.11 178.494 82.979 16.137 12.782 24.541 23.411 28.531 30.967 3.99 7.627 3.037 10.946 3.001 11.052l36.264 13.312zM730.924 578.261c22.81 22.81 23.517 59.074 1.589 80.967-21.892 21.928-58.156 21.186-80.967-1.589-22.81-22.81-23.517-59.039-1.589-80.967 21.892-21.892 58.156-21.186 80.967 1.589zM760.055 686.77c36.511-36.546 35.31-96.962-2.684-134.956s-98.41-39.194-134.956-2.648c-36.511 36.511-35.31 96.927 2.684 134.921 37.994 38.029 98.41 39.194 134.956 2.684zM1011.041 937.65l0.494 3.531 2.648-0.388 0.353-2.648-3.531-0.494zM997.376 939.556l0.459 3.496-0.459-3.531zM1012.913 924.020l-3.496-0.53 3.531 0.494zM968.245 669.785v0.035zM702.605 352.981v0zM611.010 283.031l-3.107-1.66-1.448 2.754 2.507 1.766 2.048-2.86zM623.439 145.603v0zM438.837-56.019v0zM406.705-51.958h0.035zM402.255-20.709h0.035zM432.87 172.651l-1.66 3.107 4.308 2.295 0.812-4.802-3.46-0.6zM397.206 154.395h0.035zM384.953 148.357l1.554-3.178-2.26-1.095-1.766 1.766 2.472 2.507zM221.749 311.562l-2.507-2.472-1.766 1.766 1.059 2.26 3.178-1.554zM227.752 323.85v0zM246.078 359.584l0.6 3.46 4.802-0.812-2.295-4.308-3.107 1.66zM52.577 329.005l1.589-3.178-1.624 3.178zM21.292 333.49v0zM17.267 365.622v0zM218.854 550.189v0zM356.423 537.689l2.895-2.048-1.801-2.542-2.754 1.448 1.66 3.143zM743.177 894.889v0zM578.842 260.75l-1.977 2.931 3.354 2.26 1.766-3.637-3.178-1.554zM586.717 154.572v0zM468.215 192.072l-3.425-0.742-0.565 2.542 2.26 1.271 1.766-3.072zM450.56-4.854l1.942-2.966-9.216-6.003 3.99 10.24 3.284-1.271zM446.040 222.65l2.472 2.472 3.319-3.284-4.061-2.26-1.766 3.072zM393.71 194.649l1.589-3.178-2.26-1.13-1.801 1.766 2.472 2.542zM296.007 372.649l-3.072 1.766 2.295 4.025 3.284-3.284-2.472-2.472zM291.134 363.892v0zM268.006 320.354l-2.472-2.507-1.836 1.801 1.165 2.295 3.178-1.589zM265.498 394.93l3.072-1.766-1.271-2.225-2.578 0.53 0.777 3.46zM68.396 377.274l1.306-3.249-10.24-4.025 6.003 9.216 2.931-1.907zM275.915 413.044v0zM334.177 505.522l1.554 3.178 3.637-1.801-2.295-3.354-2.931 1.977zM227.822 513.466v0zM316.239 407.5l-2.507-2.472-1.942 1.907 1.412 2.366 3.037-1.801zM480.856 242.848l1.836-3.037-2.366-1.412-1.942 1.942 2.472 2.507zM376.832 501.531v0zM746.39 854.635l-1.589 3.107 2.295 1.165 1.801-1.801-2.472-2.472zM927.991 673.034l2.472 2.472 1.836-1.766-1.165-2.295-3.178 1.589zM679.053 382.077v0zM784.102 871.937l-2.472-2.472-3.743 3.708 4.873 2.013 1.342-3.249zM976.755 903.363l0.353 3.531 2.86-0.282 0.318-2.895-3.531-0.353zM945.329 710.745l3.249-1.342-2.013-4.908-3.743 3.743 2.472 2.472zM327.256 110.469l3.107-1.66-3.107 1.624zM332.906 151.535l-1.201 3.319 3.425 1.236 1.13-3.46-3.354-1.095zM288.062 66.649v0zM76.129-29.536v0zM43.855 2.738v0zM140.041 214.67v0zM183.826 253.865v0zM224.892 259.514l1.13 3.39 3.46-1.165-1.271-3.425-3.319 1.236zM211.615 223.251l3.319-1.201-1.165-3.213-3.249 1.059 1.095 3.354zM200.563 220.249v0zM169.596 191.719v0zM86.616 13.225l1.059-3.39-6.532-2.048 2.083 6.497 3.354-1.059zM265.11 96.204l2.189-2.754-2.189 2.79zM293.641 127.171v0zM296.642 138.223l-3.354-1.095-1.059 3.249 3.178 1.165 1.236-3.319zM1010.547 934.154l-13.665 1.907 0.953 6.991 13.665-1.907-0.953-6.991zM1009.417 923.49l-1.871 13.665 6.991 0.989 1.871-13.665-6.991-0.989zM965.067 671.339c37.853 79.448 56.497 164.44 44.35 252.151l6.991 0.989c12.394-89.37-6.674-175.775-44.95-256.177l-6.356 3.037zM700.381 355.735c106.708 87.852 207.625 195.761 264.686 315.604l6.356-3.037c-57.662-121.114-159.462-229.835-266.558-318.040l-4.484 5.473zM608.962 285.891c35.42 25.169 65.193 48.090 94.111 72.007l-2.692-2.163 4.484-5.473c-26.331-21.836-56.229-44.849-86.931-66.811l-4.876-3.315-4.096 5.756zM620.050 146.557c15.254 54.237 5.155 102.012-12.182 134.815l6.25 3.284c18.079-34.251 28.495-83.862 12.712-140.006l-6.78 1.907zM437.071-52.947c112.216 64.724 164.935 135.309 182.978 199.503l6.815-1.907c-18.714-66.489-72.986-138.381-186.262-203.741l-3.531 6.144zM409.247-49.486c4.11-4.151 9.81-6.721 16.111-6.721 4.328 0 8.373 1.213 11.813 3.317l-0.099-0.056 3.531-6.109c-4.351-2.637-9.609-4.198-15.232-4.198-8.267 0-15.747 3.374-21.136 8.821l-0.003 0.003 5.014 4.943zM405.398-22.297c-1.715-3.166-2.723-6.931-2.723-10.932 0-6.326 2.52-12.063 6.612-16.262l-0.005 0.005-5.049-4.943c-5.324 5.465-8.607 12.94-8.607 21.182 0 5.167 1.29 10.032 3.567 14.292l-0.080-0.163 6.285-3.178zM436.33 173.251c7.556-43.997 7.698-120.161-30.932-195.584l-6.285 3.249c37.782 73.693 37.641 148.268 30.261 191.135l6.956 1.201zM395.688 157.573c11.299 5.579 23.199 11.652 35.522 18.185l3.319-6.25c-12.394-6.568-24.364-12.676-35.734-18.291l-3.107 6.356zM383.4 151.535l12.288 6.003 3.107-6.321-12.288-6.003-3.107 6.321zM224.221 314.069l163.24-163.204-5.014-5.014-163.204 163.24 4.979 4.979zM230.93 322.296l-6.003-12.288-6.356 3.107 6.003 12.288 6.356-3.107zM249.185 357.924c-6.568-12.359-12.641-24.258-18.255-35.628l-6.356 3.107c5.65 11.441 11.758 23.411 18.361 35.84l6.25-3.319zM50.953 332.148c75.494 38.665 151.764 38.488 195.725 30.897l-1.201-6.956c-42.867 7.415-117.513 7.556-191.311-30.226l-3.213 6.285zM23.764 335.997c4.192-4.073 9.919-6.584 16.234-6.584 4.010 0 7.783 1.013 11.078 2.796l-0.123-0.061 3.178-6.285c-4.102-2.204-8.976-3.499-14.152-3.499-8.23 0-15.696 3.274-21.165 8.591l0.007-0.007 4.943 5.049zM20.303 363.821c-2.048-3.341-3.261-7.386-3.261-11.714 0-6.3 2.57-12.001 6.72-16.109l0.002-0.002-4.943-5.049c-5.462 5.388-8.846 12.872-8.846 21.146 0 5.635 1.569 10.903 4.295 15.391l-0.074-0.132 6.109-3.531zM219.807 546.799c-64.194-18.008-134.78-70.762-199.503-182.978l-6.109 3.531c65.324 113.276 137.216 167.583 203.705 186.227l1.907-6.78zM354.763 534.547c-32.803 17.337-80.649 27.542-134.956 12.253l-1.907 6.815c56.214 15.784 105.931 5.297 140.182-12.818l-3.319-6.25zM744.695 891.675c-153.423-73.057-287.603-218.218-385.377-356.034l-5.756 4.061c98.057 138.24 233.048 284.531 388.096 358.4l3.037-6.426zM996.882 936.061c-87.711 12.147-172.738-6.532-252.186-44.385l-3.037 6.391c80.402 38.276 166.806 57.379 256.212 44.985l-0.953-6.991zM581.985 262.269c12.994-26.518 20.48-64.9 8.121-108.685l-6.78 1.907c11.794 42.019 4.59 78.566-7.662 103.671l6.356 3.107zM466.485 195.108c45.027 25.6 81.064 48.26 116.144 72.219l-5.764-3.717 3.955-5.826c-29.446-20.335-65.645-43.1-102.736-64.492l-8.138-4.328-3.46 6.144zM447.276-3.618c30.367 78.036 26.836 152.682 17.514 194.913l6.886 1.518c9.534-43.326 13.171-119.455-17.832-198.974l-6.568 2.542zM590.142 153.583c-13.559-48.269-51.8-105.366-137.64-161.439l-3.884 5.932c84.851 55.367 121.715 111.192 134.709 157.414l6.815-1.907zM447.735 219.543c-18.361-10.311-35.911-19.703-52.471-28.072l-3.178 6.321c16.419 8.298 33.898 17.655 52.189 27.895l3.46-6.144zM298.478 375.156l150.034-150.034-5.014-4.979-149.998 150.034 4.979 4.979zM287.991 365.622l4.943 8.757 6.109-3.46-4.873-8.722-6.179 3.425zM264.828 321.943c7.027 13.842 14.76 28.46 23.164 43.679l6.179-3.425c-8.369-15.148-16.066-29.661-23.058-43.432l-6.285 3.178zM391.203 192.142l-125.705 125.705 4.943 4.979 125.74-125.705-4.979-4.979zM264.686 391.469c-42.196 9.357-116.913 12.994-195.019-17.443l-2.578 6.532c79.625 31.038 155.825 27.366 199.15 17.796l-1.554-6.921zM278.952 411.243c-3.566-6.073-7.062-12.111-10.417-18.044l-6.144 3.46c3.39 6.003 6.886 12.041 10.452 18.15l6.109-3.531zM337.037 503.544c-16.346-23.622-35.544-53.742-53.794-84.491l-4.292-7.81-6.109 3.566c22.641 38.689 41.931 68.924 62.131 98.488l-3.763-5.833 5.826-3.919zM226.834 516.856c43.891 12.359 82.308 4.838 108.862-8.192l-3.143-6.356c-25.070 12.359-61.722 19.597-103.812 7.768l-1.907 6.78zM65.395 379.216c56.073 85.875 113.17 124.081 161.439 137.64l1.907-6.78c-46.257-12.994-102.047-49.858-157.414-134.709l-5.932 3.884zM318.676 410.007l164.652-164.652-4.979-5.014-164.652 164.652 4.979 5.014zM379.692 499.519c-17.338-24.496-37.299-55.102-56.263-86.379l-4.189-7.441-6.073 3.602c23.234 38.861 43.288 69.605 64.305 99.627l-3.571-5.384 5.791-4.025zM747.979 851.457c-144.808-73.234-273.761-215.57-368.287-351.938l-5.791 4.025c94.773 136.757 224.538 280.188 370.865 354.198l3.178-6.285zM925.449 670.527l-181.566 181.566 4.979 5.014 181.601-181.566-5.014-5.014zM676.758 384.795c100.705 82.944 193.571 182.095 248.020 289.827l6.321-3.178c-55.084-108.932-148.762-208.825-249.821-292.087l-4.52 5.438zM479.020 245.885c75.084 45.135 139.657 90.977 200.531 141.145l-2.793-2.235 4.52-5.438c-58.342-48.156-123.204-94.207-191.309-135.438l-7.311-4.109-3.637 6.073zM782.724 875.186c62.746 25.918 127.894 38.241 194.348 31.709l-0.706-7.062c-65.112 6.462-129.095-5.65-190.923-31.179l-2.719 6.532zM942.786 708.238l-161.192 161.192 4.979 5.014 161.192-161.192-4.979-5.014zM980.215 903.716c6.568-66.454-5.756-131.602-31.673-194.313l-6.532 2.684c25.529 61.864 37.606 125.846 31.214 190.958l7.027 0.706zM324.149 112.094c7.062 13.418 9.216 26.871 5.438 38.312l6.709 2.225c4.59-13.842 1.73-29.308-5.897-43.82l-6.25 3.284zM285.873 69.439c18.75 14.83 31.179 29.202 38.276 42.655l6.25-3.284c-7.698-14.583-20.868-29.661-40.148-44.915l-4.378 5.544zM75.105-26.146c108.12 32.486 173.303 65.924 210.803 95.585l4.343-5.544c-38.453-30.438-104.589-64.159-213.098-96.821l-2.048 6.78zM47.21 1.749c-0.674-2.026-1.063-4.359-1.063-6.783 0-12.247 9.928-22.175 22.175-22.175 2.424 0 4.757 0.389 6.94 1.108l-0.157-0.045 2.048-6.78c-2.648-0.872-5.696-1.375-8.861-1.375-16.147 0-29.237 13.090-29.237 29.237 0 3.165 0.503 6.213 1.433 9.068l-0.058-0.207 6.78-2.048zM142.795 212.516c-29.661-37.464-63.064-102.682-95.585-210.803l-6.744 2.048c32.627 108.509 66.383 174.68 96.786 213.133l5.544-4.378zM185.485 250.757c-13.453-7.062-27.86-19.491-42.69-38.276l-5.544 4.414c15.254 19.244 30.367 32.415 44.915 40.113l3.319-6.25zM223.797 256.195c-11.441 3.778-24.894 1.624-38.312-5.438l-3.319 6.25c14.513 7.627 30.014 10.487 43.855 5.897l-2.225-6.709zM208.296 224.487l13.312 36.264 6.603-2.436-13.277-36.264-6.638 2.436zM198.903 223.357c8.192 4.308 12.57 3.672 13.842 3.249l-2.225-6.709c1.059-0.353-1.271 0.953-8.333-2.754l-3.284 6.25zM166.841 193.908c12.959 16.384 23.94 25.176 32.062 29.484l3.284-6.25c-6.991-3.708-17.267-11.723-29.802-27.613l-5.544 4.414zM83.226 14.284c29.873 93.855 59.321 148.974 83.615 179.659l5.544-4.414c-23.552-29.731-52.718-83.933-82.45-177.399l-6.709 2.119zM267.299 93.45c-30.685-24.258-85.804-53.742-179.624-83.615l-2.154 6.709c93.466 29.767 147.668 58.933 177.399 82.45l4.378-5.544zM296.748 125.547c-4.273-8.121-13.065-19.138-29.449-32.097l-4.378 5.544c15.89 12.57 23.905 22.81 27.577 29.837l6.25-3.284zM299.997 139.318c0.424-1.236 1.059-5.614-3.249-13.771l-6.25 3.284c3.708 7.062 2.436 9.393 2.79 8.298l6.709 2.225zM334.142 148.216l-36.299-13.277-2.436 6.603 36.299 13.312 2.436-6.638zM734.985 661.735c23.375-23.375 22.493-61.864-1.589-85.981l-5.014 5.014c21.539 21.539 22.069 55.543 1.624 75.988l4.979 4.979zM649.039 660.146c24.082 24.082 62.57 24.964 85.945 1.589l-4.979-4.979c-20.48 20.445-54.484 19.915-75.988-1.624l-4.979 5.014zM647.415 574.165c-23.375 23.411-22.493 61.899 1.624 85.981l4.979-5.014c-21.539-21.504-22.034-55.508-1.589-75.953l-5.014-5.014zM733.396 575.754c-24.082-24.082-62.57-24.964-85.981-1.589l5.014 5.014c20.445-20.48 54.449-19.915 75.953 1.589l5.014-5.014zM754.865 554.32c36.723 36.723 37.711 94.879 2.648 129.942l5.014 4.979c37.994-37.994 36.617-100.634-2.684-139.935l-4.979 5.014zM624.922 551.637c35.028-35.063 93.219-34.039 129.942 2.684l4.979-5.014c-39.265-39.265-101.941-40.678-139.935-2.648l4.979 4.979zM627.571 681.579c-36.723-36.723-37.747-94.879-2.684-129.942l-4.979-4.979c-37.994 37.994-36.617 100.634 2.648 139.935l5.014-4.979zM757.513 684.263c-35.063 35.063-93.219 34.039-129.942-2.648l-5.014 4.979c39.3 39.3 101.941 40.678 139.935 2.648l-4.943-4.979z" />
<glyph unicode="&#xe92d;" glyph-name="twitch" d="M96 960.001l-96-160v-736h256v-128h128l128 128h160l288 288v608h-864zM832 416.001l-160-160h-160l-128-128v128h-192v576h640v-416zM608 704.001h96v-256h-96v256zM416 704.001h96v-256h-96v256z" />
<glyph unicode="&#xe92e;" glyph-name="blogger" d="M928 960.001h-832c-52.8 0-96-43.2-96-96v-832c0-52.8 43.2-96 96-96h832c52.8 0 96 43.2 96 96v832c0 52.8-43.2 96-96 96zM896 312.001c0-137-111.4-248-249.4-248h-268.8c-138 0-249.8 111-249.8 248v272c0 137 111.8 248 249.8 248h125.8c138 0 248.4-103 248.4-240 1.8-25.6 25-48 51.2-48h43c27.6 0 49.6-29 49.6-56.4v-175.6zM704 320.001c0-35.2-28.8-64-64-64h-256c-35.2 0-64 28.8-64 64v0c0 35.2 28.8 64 64 64h256c35.2 0 64-28.8 64-64v0zM576 576.001c0-35.2-28.8-64-64-64h-128c-35.2 0-64 28.8-64 64v0c0 35.2 28.8 64 64 64h128c35.2 0 64-28.8 64-64v0z" />
<glyph unicode="&#xe92f;" glyph-name="telegram-min" d="M620.276 760.352c-91.695-40.236-275.009-123.612-549.86-250.044-44.63-18.749-68.045-37.084-70.167-55.003-3.614-30.364 32.372-42.31 81.246-58.487 6.678-2.24 13.593-4.48 20.665-6.968 48.166-16.509 112.911-35.839 146.54-36.586 30.565-0.664 64.666 12.611 102.303 39.821 256.78 183.094 389.335 275.595 397.661 277.586 5.894 1.411 14.067 3.236 19.565-1.991 5.504-5.144 4.954-14.933 4.403-17.588-3.616-16.011-144.578-154.472-217.652-226.15-22.787-22.316-38.894-38.162-42.194-41.812-7.386-8.047-14.929-15.763-22.158-23.146-44.787-45.462-78.26-79.642 1.885-135.394 37.376-26.010 67.495-47.648 97.33-69.075l2.695-1.939c33.551-24.141 67.025-48.198 110.397-78.227 11.002-7.635 21.53-15.514 31.821-23.232 39.053-29.453 74.176-55.834 117.549-51.686 25.139 2.49 51.226 27.462 64.429 102.042 31.194 176.377 92.64 558.328 106.861 715.787 0.864 13.073 0.339 26.208-1.574 39.157-1.139 10.459-5.965 20.082-13.51 26.962-11.238 9.706-28.678 11.78-36.538 11.614-35.437-0.664-89.811-20.657-351.698-135.64z" />
<glyph unicode="&#xe930;" glyph-name="instagram-circle" d="M512-63.999c-69.332 0-135.666 13.5-199 40.499s-117.833 63.334-163.5 109.001c-45.667 45.667-82 100.168-109 163.499-27 63.334-40.5 129.669-40.5 199.001s13.5 135.666 40.5 199c27 63.333 63.333 117.833 109 163.5s100.167 82 163.5 109c63.334 27 129.668 40.5 199 40.5s135.666-13.5 199.001-40.5c63.331-27 117.832-63.333 163.499-109s82.002-100.167 109.001-163.5c26.999-63.334 40.499-129.668 40.499-199s-13.5-135.666-40.499-199.001c-26.999-63.331-63.334-117.832-109.001-163.499s-100.168-82.002-163.499-109.001c-63.334-26.999-129.669-40.499-199.001-40.499zM768 640.001c0 17.333-6.168 32.333-18.5 45s-27.501 19-45.5 19h-384c-17.333 0-32.333-6.333-45-19s-19-27.667-19-45v-64h113.999c38.67 42.667 86.002 64 142.001 64s103.332-21.333 142.001-64h113.999v64zM384 448.001c0-35.335 12.5-65.498 37.499-90.501 25.003-24.999 55.166-37.499 90.501-37.499s65.498 12.5 90.501 37.499c24.999 25.003 37.499 55.166 37.499 90.501s-12.5 65.498-37.499 90.501c-25.003 24.999-55.166 37.499-90.501 37.499s-65.498-12.5-90.501-37.499c-24.999-25.003-37.499-55.166-37.499-90.501zM768 512.001h-76.001c8.001-21.999 12.001-43.332 12.001-64 0-53.333-18.668-98.666-55.999-136.001-37.335-37.332-82.668-55.999-136.001-55.999s-98.666 18.668-136.001 55.999c-37.332 37.335-55.999 82.668-55.999 136.001 0 20.668 4 42.001 12 64h-76v-256c0-17.999 6.167-33.167 18.5-45.5s27.5-18.5 45.5-18.5h384c17.999 0 33.167 6.168 45.5 18.5s18.5 27.501 18.5 45.5v256z" />
<glyph unicode="&#xe931;" glyph-name="twitter" d="M884.131 718.524c41.723 24.944 72.946 64.222 87.831 110.499-39.205-23.264-82.106-39.651-126.836-48.454-62.017 65.605-160.279 81.57-239.877 38.975s-120.827-133.205-100.65-221.2c-160.6 8.063-310.226 83.926-411.647 208.71-52.93-91.295-25.882-208.001 61.812-266.706-31.711 1.019-62.719 9.605-90.438 25.041 0-0.838 0-1.676 0-2.513 0.018-95.099 67.043-177.016 160.256-195.864-29.414-8.001-60.267-9.179-90.205-3.444 26.214-81.329 101.169-137.044 186.601-138.705-70.757-55.533-158.14-85.653-248.087-85.504-15.943-0.023-31.874 0.894-47.709 2.746 91.341-58.694 197.649-89.847 306.223-89.74 151.053-1.038 296.214 58.512 403.022 165.329s166.349 251.986 165.297 403.038c0 8.657-0.2 17.268-0.605 25.833 39.121 28.272 72.881 63.295 99.7 103.424-36.445-16.154-75.101-26.76-114.688-31.465z" />
<glyph unicode="&#xe932;" glyph-name="setting" d="M892.534 397.825c2.048 16.384 3.584 32.768 3.584 50.176s-1.536 33.792-3.584 50.176l108.032 84.48c9.728 7.68 12.288 21.504 6.144 32.768l-102.4 177.152c-4.608 8.192-13.312 12.8-22.528 12.8-3.072 0-6.144-0.512-8.704-1.536l-127.488-51.2c-26.624 20.48-55.296 37.376-86.528 50.176l-19.456 135.68c-1.536 12.288-12.288 21.504-25.088 21.504h-204.801c-12.8 0-23.552-9.216-25.088-21.504l-19.456-135.68c-31.232-12.8-59.904-30.208-86.528-50.176l-127.488 51.2c-3.072 1.024-6.144 1.536-9.216 1.536-8.704 0-17.408-4.608-22.016-12.8l-102.4-177.152c-6.656-11.264-3.584-25.088 6.144-32.768l108.032-84.48c-2.048-16.384-3.584-33.28-3.584-50.176s1.536-33.792 3.584-50.176l-108.032-84.48c-9.728-7.68-12.288-21.504-6.144-32.768l102.4-177.152c4.608-8.192 13.312-12.8 22.528-12.8 3.072 0 6.144 0.512 8.704 1.536l127.488 51.2c26.624-20.48 55.296-37.376 86.528-50.176l19.456-135.68c1.536-12.288 12.288-21.504 25.088-21.504h204.801c12.8 0 23.552 9.216 25.088 21.504l19.456 135.68c31.232 12.8 59.904 30.208 86.528 50.176l127.488-51.2c3.072-1.024 6.144-1.536 9.216-1.536 8.704 0 17.408 4.608 22.016 12.8l102.4 177.152c6.144 11.264 3.584 25.088-6.144 32.768l-108.032 84.48zM791.158 485.377c2.048-15.872 2.56-26.624 2.56-37.376s-1.024-22.016-2.56-37.376l-7.168-57.856 45.568-35.84 55.296-43.008-35.84-61.952-65.024 26.112-53.248 21.504-46.080-34.816c-22.016-16.384-43.008-28.672-64-37.376l-54.272-22.016-8.192-57.856-10.24-69.12h-71.681l-17.92 126.976-54.272 22.016c-22.016 9.216-42.496 20.992-62.976 36.352l-46.592 35.84-54.272-22.016-65.024-26.112-35.84 61.952 55.296 43.008 45.568 35.84-7.168 57.856c-1.536 15.872-2.56 27.648-2.56 37.888s1.024 22.016 2.56 37.376l7.168 57.856-45.568 35.84-55.296 43.008 35.84 61.952 65.024-26.112 53.248-21.504 46.080 34.816c22.016 16.384 43.008 28.672 64 37.376l54.272 22.016 8.192 57.856 10.24 69.12h71.169l17.92-126.976 54.272-22.016c22.016-9.216 42.496-20.992 62.976-36.352l46.592-35.84 54.272 22.016 65.024 26.112 35.84-61.952-54.784-43.52-45.568-35.84 7.168-57.856zM512.118 652.801c-113.153 0-204.801-91.648-204.801-204.8s91.648-204.8 204.801-204.8c113.152 0 204.8 91.648 204.8 204.8s-91.648 204.8-204.8 204.8zM512.118 345.601c-56.321 0-102.401 46.080-102.401 102.4s46.080 102.4 102.401 102.4c56.32 0 102.4-46.080 102.4-102.4s-46.080-102.4-102.4-102.4z" />
<glyph unicode="&#xe933;" glyph-name="m" d="M1024 876.806l-81.6-86.268c-7.2-5.957-10.598-15.665-9.197-25.153v-634.766c-1.402-9.709 1.997-19.418 9.197-25.152l80-86.272v-19.194h-401.6v18.31l82.598 88.48c8.205 9.043 8.205 11.693 8.205 25.152v513.636l-230.003-643.371h-31l-267.601 643.371v-431.345c-2.4-18.086 3.4-36.403 15-49.421l107.6-143.629v-19.2h-305.6v19.2l107.6 143.629c5.669 6.464 9.888 14.298 12.319 22.88s3.007 17.67 1.681 26.541v498.639c1.4 13.9-3.4 27.359-13 36.846l-95.6 127.086v19.195h297l229.2-554.898 201.798 554.457h283.002v-18.754z" />
<glyph unicode="&#xe934;" glyph-name="medium-circles" d="M290.133 721.058c-38.101 0-75.829-7.504-111.029-22.085s-67.185-35.953-94.126-62.893c-26.941-26.943-48.312-58.927-62.893-94.126-14.581-35.202-22.085-72.929-22.085-111.031 0-38.099 7.505-75.829 22.085-111.028s35.952-67.186 62.893-94.126c26.941-26.94 58.926-48.312 94.126-62.894 35.201-14.579 72.928-22.083 111.029-22.083s75.83 7.504 111.029 22.083c35.202 14.582 67.186 35.954 94.126 62.894 26.943 26.94 48.312 58.927 62.894 94.126 14.579 35.199 22.083 72.929 22.083 111.028 0 38.102-7.504 75.829-22.083 111.031-14.582 35.199-35.951 67.183-62.894 94.126-26.94 26.94-58.924 48.312-94.126 62.893-35.199 14.581-72.929 22.085-111.029 22.085zM750.934 686.925c-17.932 0-35.685-6.621-52.25-19.487-16.565-12.864-31.615-31.723-44.295-55.495-12.677-23.771-22.733-51.993-29.597-83.052-6.861-31.059-10.392-64.348-10.392-97.968 0-33.616 3.531-66.905 10.392-97.965 6.864-31.059 16.919-59.281 29.597-83.052 12.68-23.774 27.73-42.631 44.295-55.495s34.319-19.488 52.25-19.488c17.929 0 35.682 6.624 52.247 19.488s31.618 31.721 44.295 55.495c12.677 23.771 22.736 51.993 29.597 83.052s10.392 64.348 10.392 97.965c0 33.619-3.531 66.908-10.392 97.968s-16.919 59.281-29.597 83.052c-12.677 23.771-27.73 42.631-44.295 55.495s-34.319 19.487-52.247 19.487zM972.8 652.792c-13.578 0-26.601-23.376-36.203-64.983-9.602-41.61-14.997-98.041-14.997-156.886 0-58.842 5.395-115.273 14.997-156.883 9.602-41.607 22.625-64.983 36.203-64.983s26.601 23.376 36.203 64.983c9.602 41.61 14.997 98.041 14.997 156.883 0 58.845-5.395 115.276-14.997 156.886-9.602 41.607-22.625 64.983-36.203 64.983z" />
<glyph unicode="&#xe935;" glyph-name="gmail" horiz-adv-x="1293" d="M291.353 485.11v377.973l-3.281 2.585h-0.273l-74.632 58.668c-45.655 36.014-110.719 34.271-151.179-8.132-27.064-28.463-44.014-67.962-44.014-111.818v-104.616l273.379-214.661zM1002.14 485.487v-0.377l273.376 214.661v104.616c0 43.275-16.4 82.774-43.191 111.237-39.914 42.317-102.928 47.283-148.281 11.705l-81.904-64.245v-377.596zM346.028 442.561l284.481-223.403c9.647-7.583 22.851-7.583 32.504 0l284.451 223.403v377.596l-300.716-236.212-300.719 236.212v-377.596zM1002.14 412.91v-438.881c0-16.034 12.245-29.044 27.335-29.044h177.696c37.753 0 68.344 32.499 68.344 72.607v610.006l-273.376-214.688zM291.353 412.91l-273.379 214.688v-610.006c0-40.108 30.591-72.607 68.345-72.607h177.696c15.091 0 27.338 13.010 27.338 29.044v438.881z" />
<glyph unicode="&#xe936;" glyph-name="mail" d="M1024 755.201c0 56.32-46.080 102.4-102.4 102.4h-819.2c-56.32 0-102.4-46.080-102.4-102.4v-614.4c0-56.32 46.080-102.4 102.4-102.4h819.2c56.32 0 102.4 46.080 102.4 102.4v614.4zM921.6 755.201l-409.6-256-409.6 256h819.2zM921.6 140.801h-819.2v512l409.6-256 409.6 256v-512z" />
<glyph unicode="&#xe937;" glyph-name="earnings" horiz-adv-x="1078" d="M293.798 866.515c-2.144-3.040-4.23-6.085-6.248-9.104-13.479-20.159 5.852-45.611 29.927-48.517 1.973-0.238 3.919-0.515 5.841-0.827 26.437-4.301 48.254-15.426 70.925-26.988 5.854-2.985 11.764-5.999 17.826-8.932-271.013-95.877-494.374-550.871-382.617-690.571 141.682-177.109 1048.443-215.218 1048.443 113.346 0 247.482-216.145 516.579-459.657 580.759 2.609 1.272 5.195 2.548 7.766 3.817 23.018 11.358 44.991 22.197 71.599 25.681 0.884 0.116 1.773 0.224 2.673 0.323 24.856 2.758 46.069 29.461 32.725 50.617-1.353 2.148-2.727 4.3-4.123 6.445-15.813 24.384-33.76 47.969-47.686 54.932-113.346 56.673-255.027 56.671-340.035 0-16.525-11.017-33.205-30.906-47.358-50.982zM372.593 870.342c-7.153-4.769-4.112-15.436 3.907-18.538 12.070-4.668 22.894-9.868 32.507-14.674 3.654-1.827 7.17-3.607 10.577-5.331 32.21-16.3 54.636-27.649 91.591-27.649 36.132 0 58.132 10.755 89.418 26.048 4.333 2.12 8.86 4.332 13.614 6.609 13.846 6.632 30.138 13.889 49.001 19.073 0.447 0.122 0.625 0.658 0.34 1.019-1.762 2.221-3.288 4.032-4.57 5.494-3.191 3.644-7.34 6.523-11.738 8.565-98.401 45.722-212.649 40.713-274.645-0.617zM541.577 138.246c-19.843 0-35.928 16.088-35.928 35.932v1.59c-62.583 11.625-108.941 56.541-108.941 110.436h71.855c0-30.116 31.291-51.782 69.537-51.782s68.96 21.666 68.96 52.31c0 34.875-31.873 47.029-76.493 59.182-1.811 0.458-3.655 0.916-5.526 1.385-50.205 12.52-120.22 29.982-120.22 105.885 0 50.728 42.881 92.473 100.828 105.155 0 18.386 14.905 33.29 33.29 33.29h5.274c18.389 0 33.291-14.905 33.291-33.29 58.53-12.154 102.567-54.955 102.567-105.683h-73.011c0 28.006-29.556 48.614-64.323 48.614-35.928 0-65.481-16.909-65.481-44.387 0-32.196 27.311-39.489 68.93-50.602 2.097-0.561 4.231-1.126 6.403-1.708 64.9-16.384 127.483-40.162 127.483-117.841 0-51.782-43.461-95.642-102.567-108.851v-3.703c0-19.844-16.088-35.932-35.926-35.932z" />
<glyph unicode="&#xe938;" glyph-name="earth" d="M512 960.001c-282.77 0-512-229.23-512-512s229.23-512 512-512 512 229.23 512 512-229.23 512-512 512zM512-0.001c-62.958 0-122.872 13.012-177.23 36.452l233.148 262.29c5.206 5.858 8.082 13.422 8.082 21.26v96c0 17.674-14.326 32-32 32-112.99 0-232.204 117.462-233.374 118.626-6 6.002-14.14 9.374-22.626 9.374h-128c-17.672 0-32-14.328-32-32v-192c0-12.122 6.848-23.202 17.69-28.622l110.31-55.156v-187.886c-116.052 80.956-192 215.432-192 367.664 0 68.714 15.49 133.806 43.138 192h116.862c8.488 0 16.626 3.372 22.628 9.372l128 128c6 6.002 9.372 14.14 9.372 22.628v77.412c40.562 12.074 83.518 18.588 128 18.588 70.406 0 137.004-16.26 196.282-45.2-4.144-3.502-8.176-7.164-12.046-11.036-36.266-36.264-56.236-84.478-56.236-135.764s19.97-99.5 56.236-135.764c36.434-36.432 85.218-56.264 135.634-56.26 3.166 0 6.342 0.080 9.518 0.236 13.814-51.802 38.752-186.656-8.404-372.334-0.444-1.744-0.696-3.488-0.842-5.224-81.324-83.080-194.7-134.656-320.142-134.656z" />
<glyph unicode="&#xe939;" glyph-name="smile" d="M511.488 960.001c-282.624 0-511.488-229.376-511.488-512s228.864-512 511.488-512c283.136 0 512.512 229.376 512.512 512s-229.376 512-512.512 512zM512 38.401c-226.304 0-409.6 183.296-409.6 409.6s183.296 409.6 409.6 409.6c226.304 0 409.6-183.296 409.6-409.6s-183.296-409.6-409.6-409.6zM691.2 499.201c42.496 0 76.8 34.304 76.8 76.8s-34.304 76.8-76.8 76.8c-42.496 0-76.8-34.304-76.8-76.8s34.304-76.8 76.8-76.8zM332.8 499.201c42.496 0 76.8 34.304 76.8 76.8s-34.304 76.8-76.8 76.8c-42.496 0-76.8-34.304-76.8-76.8s34.304-76.8 76.8-76.8zM512 166.401c119.296 0 220.672 74.752 261.632 179.2h-523.264c40.96-104.448 142.336-179.2 261.632-179.2z" />
<glyph unicode="&#xe93a;" glyph-name="wallet" d="M190.512 805.209l19.728 19.728c17.864 17.864 42.093 27.9 67.356 27.9h603.52c78.91 0 142.884-63.971 142.884-142.884v-460.636c0-25.262-10.040-49.495-27.901-67.356l-19.727-19.727v523.905c0 65.76-53.31 119.070-119.070 119.070h-666.79zM166.699 757.582c-52.608 0-95.256-42.647-95.256-95.256v-71.443l351.917 0.001c29.227 0.001 52.92-22.745 52.92-50.803v-279.418c0-28.058-23.693-50.8-52.92-50.8h-351.917v-71.442c0-52.61 42.647-95.256 95.256-95.256h666.79c52.61 0 95.256 42.646 95.256 95.256v523.907c0 52.608-42.646 95.256-95.256 95.256l-666.79-0.002zM42.336 543.257l343.98 0.001c23.382 0 42.336-17.059 42.336-38.102v-209.563c0-21.042-18.955-38.102-42.336-38.102h-343.98c-23.382 0-42.336 17.060-42.336 38.102v209.563c0 21.044 18.955 38.102 42.336 38.102zM285.768 352.746c26.304 0 47.628 21.323 47.628 47.628s-21.324 47.628-47.628 47.628-47.628-21.324-47.628-47.628c0-26.305 21.324-47.628 47.628-47.628z" />
<glyph unicode="&#xe93b;" glyph-name="badge" horiz-adv-x="1208" d="M648.184 929.144c59.001 16.165 121.746-5.547 158.98-55.014 16.964-22.541 39.731-39.852 65.738-50.039 57.068-22.342 95.3-77.555 96.986-139.924 0.748-28.423 9.169-56.071 24.324-79.917 21.704-34.099 28.877-74.713 21.704-113.11-3.865-20.501-11.787-40.369-23.825-58.276-6.861-10.251-12.472-21.26-16.715-32.776-5.488-14.837-8.73-30.507-9.605-46.49-3.18-62.306-42.785-116.523-100.352-137.392-11.416-4.122-22.205-9.599-32.185-16.284-13.097-8.741-24.823-19.54-34.74-32.062-38.481-48.493-101.725-68.584-160.353-50.914-26.695 8.055-55.073 8.42-81.954 1.050-59.001-16.156-121.746 5.548-158.98 55.015-17.027 22.541-39.731 39.86-65.738 50.039-57.071 22.342-95.302 77.561-96.986 139.923-0.749 28.423-9.168 56.071-24.324 79.917-33.305 52.308-32.495 119.947 2.121 171.386 15.717 23.45 24.823 50.877 26.258 79.273 3.181 62.298 42.848 116.516 100.416 137.393 7.486 2.714 14.719 6.017 21.643 9.862 17.34 9.631 32.744 22.676 45.279 38.475 38.421 48.495 101.728 68.584 160.293 50.915 13.908-4.178 28.192-6.288 42.472-6.32 13.286-0.024 26.571 1.727 39.545 5.269zM602.154 230.167c158.731 0 287.4 131.366 287.4 293.408s-128.67 293.409-287.4 293.409c-158.733 0-287.403-131.367-287.403-293.409s128.67-293.408 287.403-293.408zM602.154 197.565c176.383 0 319.336 145.957 319.336 326.010s-142.953 326.009-319.336 326.009c-176.383 0-319.336-145.956-319.336-326.009s142.953-326.010 319.336-326.010zM202.985 327.97l-191.601-195.605h191.601v-195.605l175.635 179.305c-5.115 5.196-8.234 14.039-11.789 24.090-7.672 21.491-17.277 48.527-52.080 57.41-76.652 13.039-106.464 92.367-111.766 130.405zM1001.322 327.97l191.601-195.605h-191.601v-195.605l-175.634 179.305c1.683 1.725 3.182 3.86 4.553 6.309 2.683 4.905 4.865 11.072 7.236 17.781 7.669 21.491 17.277 48.527 52.077 57.41 76.653 13.039 106.467 92.367 111.768 130.405z" />
<glyph unicode="&#xe93c;" glyph-name="globe" d="M480 896.001c-265.096 0-480-214.904-480-480 0-265.098 214.904-480 480-480 265.098 0 480 214.902 480 480 0 265.096-214.902 480-480 480zM751.59 256.001c8.58 40.454 13.996 83.392 15.758 128h127.446c-3.336-44.196-13.624-87.114-30.68-128h-112.524zM208.41 576.001c-8.58-40.454-13.996-83.392-15.758-128h-127.444c3.336 44.194 13.622 87.114 30.678 128h112.524zM686.036 576.001c9.614-40.962 15.398-83.854 17.28-128h-191.316v128h174.036zM512 640.001v187.338c14.59-4.246 29.044-11.37 43.228-21.37 26.582-18.74 52.012-47.608 73.54-83.486 14.882-24.802 27.752-52.416 38.496-82.484h-155.264zM331.232 722.485c21.528 35.878 46.956 64.748 73.54 83.486 14.182 10 28.638 17.124 43.228 21.37v-187.34h-155.264c10.746 30.066 23.616 57.68 38.496 82.484zM448 576.001v-128h-191.314c1.88 44.146 7.666 87.038 17.278 128h174.036zM95.888 256.001c-17.056 40.886-27.342 83.804-30.678 128h127.444c1.762-44.608 7.178-87.546 15.758-128h-112.524zM256.686 384.001h191.314v-128h-174.036c-9.612 40.96-15.398 83.854-17.278 128zM448 192.001v-187.34c-14.588 4.246-29.044 11.372-43.228 21.37-26.584 18.74-52.014 47.61-73.54 83.486-14.882 24.804-27.75 52.418-38.498 82.484h155.266zM628.768 109.517c-21.528-35.876-46.958-64.746-73.54-83.486-14.184-9.998-28.638-17.124-43.228-21.37v187.34h155.266c-10.746-30.066-23.616-57.68-38.498-82.484zM512 256.001v128h191.314c-1.88-44.146-7.666-87.040-17.28-128h-174.034zM767.348 448.001c-1.762 44.608-7.178 87.546-15.758 128h112.524c17.056-40.886 27.344-83.806 30.68-128h-127.446zM830.658 640.001h-95.9c-18.638 58.762-44.376 110.294-75.316 151.428 42.536-20.34 81.058-47.616 114.714-81.272 21.48-21.478 40.362-44.938 56.502-70.156zM185.844 710.157c33.658 33.658 72.18 60.932 114.714 81.272-30.942-41.134-56.676-92.666-75.316-151.428h-95.898c16.138 25.218 35.022 48.678 56.5 70.156zM129.344 192.001h95.898c18.64-58.762 44.376-110.294 75.318-151.43-42.536 20.34-81.058 47.616-114.714 81.274-21.48 21.478-40.364 44.938-56.502 70.156zM774.156 121.845c-33.656-33.658-72.18-60.934-114.714-81.274 30.942 41.134 56.678 92.668 75.316 151.43h95.9c-16.14-25.218-35.022-48.678-56.502-70.156z" />
<glyph unicode="&#xe93d;" glyph-name="rewards" horiz-adv-x="1071" d="M209.455 913.456v23.273c-12.853 0-23.273-10.42-23.273-23.273h23.273zM861.091 913.456h23.273c0 12.853-10.422 23.273-23.273 23.273v-23.273zM861.091-17.454v-23.273c11.446 0 21.187 8.318 22.984 19.624 1.797 11.301-4.892 22.23-15.774 25.777l-7.21-22.128zM209.455-17.454l-6.758 22.272c-11.037-3.351-17.956-14.28-16.263-25.688s11.486-19.856 23.020-19.856v23.273zM209.455 890.183h651.636v46.545h-651.636v-46.545zM556.4 208.599l-62.427 27.871-18.981-42.501 62.427-27.876 18.981 42.505zM607.832 240.036l-70.414-31.437 18.981-42.505 70.409 31.441-18.977 42.501zM837.818 913.456v-93.091h46.545v93.091h-46.545zM837.818 820.365v-335.127h46.545v335.127h-46.545zM1000.727 657.456v-9.309h46.545v9.309h-46.545zM69.818 648.146v9.309h-46.545v-9.309h46.545zM232.727 485.237v335.127h-46.545v-335.127h46.545zM232.727 820.365v93.091h-46.545v-93.091h46.545zM216.212-39.726l337.455 102.4-13.517 44.544-337.454-102.4 13.516-44.544zM539.699 62.819l314.182-102.4 14.42 44.255-314.182 102.4-14.42-44.255zM523.636 187.346v-102.4h46.545v102.4h-46.545zM861.091 5.819h-314.182v-46.545h314.182v46.545zM546.909 5.819h-337.455v-46.545h337.455v46.545zM69.818 657.456c0 77.119 62.518 139.636 139.636 139.636v46.545c-102.825 0-186.182-83.356-186.182-186.182h46.545zM1000.727 648.146c0-77.119-62.515-139.636-139.636-139.636v-46.545c102.824 0 186.182 83.356 186.182 186.182h-46.545zM861.091 797.092c77.121 0 139.636-62.518 139.636-139.636h46.545c0 102.825-83.358 186.182-186.182 186.182v-46.545zM839.084 492.801c-38.73-112.659-122.47-204.195-231.252-252.765l18.977-42.501c120.557 53.83 213.369 155.28 256.289 280.138l-44.013 15.127zM209.455 508.51c-77.119 0-139.636 62.518-139.636 139.636h-46.545c0-102.825 83.356-186.182 186.182-186.182v46.545zM493.973 236.471c-116.014 51.8-209.521 143.607-263.446 258.645l-42.145-19.755c58.667-125.156 160.397-225.033 286.61-281.391l18.981 42.501zM797.091 843.637h-517.818v-335.127c42.28-98.807 120.014-178.204 217.898-222.566l53.229-24.125 47.974 22.979c93.603 44.842 165.227 125.473 198.717 223.711v335.127z" />
<glyph unicode="&#xe93e;" glyph-name="coin" d="M863.84 799.809l63.968-63.968c105.984-105.984 34.4-349.408-159.904-543.712-190.848-190.848-429.056-263.328-537.888-165.408l-5.824 5.504-63.968 63.968c105.984-105.984 349.408-34.368 543.712 159.904s265.92 437.728 159.904 543.712zM256.128 703.873c194.304 194.304 437.728 265.92 543.712 159.904s34.4-349.408-159.904-543.712c-194.304-194.304-437.728-265.92-543.712-159.904s-34.368 349.408 159.904 543.712z" />
<glyph unicode="&#xe93f;" glyph-name="chest" horiz-adv-x="1707" d="M1211.179-32.639v395.39h495.488v-395.39h-495.488zM1211.179 584.634v-115.112h495.488v115.112h-495.488zM1706.667 694.741h-495.488c0 93.425 63.070 265.26 255.258 265.26s240.23-176.84 240.23-265.26zM1109.419 694.741c0 140.137 67.84 235.23 101.76 265.26h-980.954c-180.176 0-228.557-176.84-230.225-265.26h1109.419zM1109.419 469.522v115.112h-380.373v-115.112h380.373zM380.372 469.522v115.112h-380.372v-115.112h380.372zM485.474 584.634h135.132v-208.537c0-19.464-13.681-58.39-68.401-58.39s-67.288 38.927-66.732 58.39v208.537zM729.045 362.751h380.373v-395.39h-1109.419v395.39h380.372c11.678-49.493 62.394-148.478 171.834-148.478s163.494 98.985 176.84 148.478z" />
<glyph unicode="&#xe940;" glyph-name="arrow-left" d="M768 960l-512-512 512-512v1024z" />
<glyph unicode="&#xe941;" glyph-name="arrow-right" d="M256-63.999l512 512-512 512v-1024z" />
<glyph unicode="&#xe942;" glyph-name="arrow-down" d="M0 704.001l512-512 512 512h-1024z" />
<glyph unicode="&#xe943;" glyph-name="info" d="M443.733 688.072v120.604h167.253v-120.604h-167.253zM456.249 49.779v425.529h-80.782l13.653 113.778h220.729v-539.307h-153.6z" />
<glyph unicode="&#xe944;" glyph-name="arrow-up" d="M1024 192.001l-512 512-512-512h1024z" />
<glyph unicode="&#xe945;" glyph-name="arrow-detail-left" d="M1024 512.001h-778.88l357.76 357.76-90.88 90.24-512-512 512-512 90.24 90.24-357.12 357.76h778.88v128z" />
<glyph unicode="&#xe946;" glyph-name="arrow-detail-right" d="M0 384.001h778.88l-357.76-357.76 90.88-90.24 512 512-512 512-90.24-90.24 357.12-357.76h-778.88v-128z" />
<glyph unicode="&#xe947;" glyph-name="arrow-detail-down" d="M448 960.001v-778.88l-357.76 357.76-90.24-90.88 512-512 512 512-90.24 90.24-357.76-357.12v778.88h-128z" />
<glyph unicode="&#xe948;" glyph-name="coin2" d="M205.076 56.466c110.99-100.904 336.212-20.379 510.020 184.815 157.653 186.114 220.099 412.345 157.118 539.427 4.759-4.179 9.382-8.589 13.857-13.236 129.168-134.027 89.654-412.937-88.252-622.967-177.903-210.031-426.83-271.641-555.993-137.613-14.305 14.842-26.541 31.463-36.75 49.573zM634.391 325.963c-177.903-210.029-409.674-289.442-517.674-177.376s-51.331 373.175 126.572 583.204c177.903 210.029 409.674 289.442 517.674 177.376s51.331-373.175-126.572-583.204z" />
<glyph unicode="&#xe949;" glyph-name="paper" horiz-adv-x="1216" d="M1143.84 726.689c40.8-11.36 64.704-53.888 53.312-94.784l-27.552-98.88c-3.808-13.664-17.92-21.632-31.552-17.856l-123.296 34.368 34.432 123.584c11.392 40.896 53.856 64.896 94.656 53.536zM645.6 178.625l26.080 93.568-443.872 123.712 110.24 395.52c22.784 81.792 107.712 129.824 189.312 107.072l518.496-144.512c-21.408-16.352-38.176-39.168-45.952-67.104l-158.464-568.544c-16.736-60.064-83.392-92.736-142.4-65.408-46.304 21.44-67.136 76.416-53.408 125.696zM608.576 236.481l-13.792-49.44c-22.784-81.792 25.024-166.816 106.624-189.568l-517.856 144.32c-95.328 26.592-151.040 125.568-124.384 221.152 3.808 13.664 17.92 21.632 31.552 17.856l517.856-144.32z" />
<glyph unicode="&#xe94a;" glyph-name="p" d="M667.106 960.001c63.748 0 119.216-12.047 166.398-36.141 47.687-24.094 84.079-57.976 109.179-101.647 25.098-43.169 37.643-93.113 37.643-149.835 0-61.238-16.064-125.489-48.186-192.752-32.125-66.76-81.065-123.481-146.823-170.164-65.756-46.179-146.32-69.271-241.693-69.271h-207.057l-54.212-304.19h-238.68l180.704 1023.997h442.727zM566.212 451.769c34.135 0 64.251 9.788 90.353 29.365 26.102 20.078 45.929 43.922 59.482 71.53 14.055 27.607 21.082 52.454 21.082 74.54 0 21.082-4.769 40.91-14.306 59.482s-23.089 33.381-40.659 44.424c-17.568 11.043-37.646 16.565-60.234 16.565h-196.516l-51.954-295.904h192.752z" />
<glyph unicode="&#xe94b;" glyph-name="xp" d="M229.19 460.487l-122.674 237.268h127.081l76.396-159.036 124.511 159.036h146.183l-206.052-237.268 136.631-262.242h-127.817l-89.619 185.111-147.283-185.111h-146.548l229.188 262.242zM871.211 697.756c31.098 0 58.151-5.877 81.168-17.63 23.264-11.753 41.017-28.281 53.256-49.584 12.245-21.058 18.364-45.421 18.364-73.090 0-29.873-7.834-61.215-23.506-94.026-15.667-32.566-39.545-60.236-71.621-83.007-32.076-22.527-71.374-33.791-117.897-33.791h-101.006l-26.445-148.382h-116.431l88.148 499.51h215.969zM821.995 449.836c16.651 0 31.34 4.775 44.074 14.324 12.734 9.795 22.405 21.425 29.014 34.892 6.856 13.467 10.284 25.588 10.284 36.362 0 10.285-2.327 19.956-6.98 29.016s-11.262 16.283-19.831 21.67c-8.57 5.387-18.364 8.080-29.384 8.080h-95.864l-25.339-144.344h94.026z" />
<glyph unicode="&#xe94c;" glyph-name="arrow-detail-up" d="M576-63.999v778.88l357.76-357.76 90.24 90.88-512 512-512-512 90.24-90.24 357.76 357.12v-778.88h128z" />
<glyph unicode="&#xe94d;" glyph-name="arrow-left-tick" d="M828.159 839.681l-390.826-391.68 390.826-391.68-120.319-120.32-512 512 512 512 120.319-120.32z" />
<glyph unicode="&#xe94e;" glyph-name="edit" d="M629.119 617.53l52.338-52.338-515.411-515.413h-52.338v52.338l515.411 515.413zM833.919 960.001c-14.222 0-29.013-5.689-39.822-16.498l-104.107-104.107 213.333-213.333 104.107 104.107c22.187 22.187 22.187 58.027 0 80.213l-133.12 133.12c-11.378 11.378-25.6 16.498-40.391 16.498zM629.119 778.525l-629.189-629.191v-213.333h213.334l629.189 629.191-213.333 213.333z" />
<glyph unicode="&#xe94f;" glyph-name="instagram" d="M249.080 448.003c0-145.207 117.712-262.921 262.919-262.921s262.921 117.713 262.921 262.921c0 145.207-117.713 262.919-262.921 262.919s-262.919-117.712-262.919-262.919zM511.999 277.336c-94.257 0-170.667 76.407-170.667 170.667 0 94.257 76.41 170.667 170.667 170.667 94.255 0 170.667-76.41 170.667-170.667 0-94.259-76.412-170.667-170.667-170.667zM785.305 659.87c33.933 0 61.44 27.506 61.44 61.439s-27.507 61.441-61.44 61.441c-33.929 0-61.44-27.508-61.44-61.441s27.511-61.439 61.44-61.439zM511.999 960.002c-139.051 0-156.487-0.589-211.097-3.081-54.496-2.486-91.716-11.142-124.283-23.799-33.668-13.082-62.221-30.59-90.687-59.053-28.463-28.466-45.97-57.019-59.053-90.687-12.658-32.567-21.314-69.786-23.799-124.283-2.492-54.61-3.081-72.046-3.081-211.097s0.589-156.489 3.081-211.098c2.486-54.494 11.142-91.716 23.799-124.284 13.082-33.668 30.59-62.221 59.053-90.684 28.466-28.467 57.019-45.973 90.687-59.055 32.567-12.659 69.786-21.312 124.283-23.799 54.61-2.492 72.046-3.081 211.097-3.081s156.489 0.589 211.098 3.081c54.494 2.487 91.716 11.14 124.284 23.799 33.668 13.082 62.221 30.588 90.684 59.055 28.467 28.463 45.973 57.015 59.055 90.684 12.659 32.567 21.312 69.79 23.799 124.284 2.492 54.609 3.081 72.047 3.081 211.098s-0.589 156.487-3.081 211.097c-2.487 54.496-11.14 91.716-23.799 124.283-13.082 33.668-30.588 62.221-59.055 90.687-28.463 28.463-57.015 45.97-90.684 59.053-32.567 12.658-69.79 21.314-124.284 23.799-54.609 2.492-72.047 3.081-211.098 3.081zM511.999 867.751c136.708 0 152.905-0.522 206.891-2.985 49.92-2.276 77.030-10.617 95.074-17.629 23.898-9.288 40.951-20.383 58.867-38.3 17.92-17.916 29.013-34.971 38.302-58.87 7.010-18.042 15.351-45.152 17.63-95.071 2.462-53.988 2.982-70.182 2.982-206.892 0-136.708-0.521-152.905-2.982-206.891-2.278-49.92-10.62-77.030-17.63-95.074-9.289-23.898-20.382-40.951-38.302-58.867-17.916-17.92-34.97-29.013-58.867-38.302-18.044-7.010-45.154-15.351-95.074-17.63-53.978-2.462-70.17-2.982-206.891-2.982-136.719 0-152.91 0.521-206.892 2.982-49.92 2.278-77.030 10.62-95.071 17.63-23.899 9.289-40.955 20.382-58.87 38.302-17.916 17.916-29.012 34.97-38.301 58.867-7.011 18.044-15.352 45.154-17.629 95.074-2.464 53.986-2.986 70.182-2.986 206.891s0.522 152.904 2.986 206.892c2.276 49.92 10.617 77.030 17.629 95.071 9.288 23.899 20.383 40.954 38.301 58.87 17.915 17.917 34.971 29.012 58.87 38.3 18.041 7.012 45.151 15.353 95.071 17.629 53.988 2.463 70.182 2.985 206.892 2.985z" />
</font>
</defs>
</svg>
